<?xml version="1.0" standalone="no"?>
<!DOCTYPE svg PUBLIC "-//W3C//DTD SVG 1.1//EN" "http://www.w3.org/Graphics/SVG/1.1/DTD/svg11.dtd" >
<svg xmlns="http://www.w3.org/2000/svg">
<metadata>
This is a custom SVG webfont generated by Font Squirrel.
Copyright   : Copyright c 20082010 by Accademia di Belle Arti di Urbino and others All rights reserved
Designer    : Accademia di Belle Arti di Urbino and others
Foundry     : Accademia di Belle Arti di Urbino and others
Foundry URL : wwwcampivisivinet
</metadata>
<defs>
<font id="TitilliumText25L999wt" horiz-adv-x="1085" >
<font-face units-per-em="2048" ascent="1536" descent="-512" />
<missing-glyph horiz-adv-x="481" />
<glyph unicode=" "  horiz-adv-x="481" />
<glyph unicode="&#x09;" horiz-adv-x="481" />
<glyph unicode="&#xa0;" horiz-adv-x="481" />
<glyph unicode="!" d="M406 1434h303l-11 -902h-282zM410 0v340h295v-340h-295z" />
<glyph unicode="&#x22;" horiz-adv-x="727" d="M68 1413h264l-10 -512h-250zM412 1413h264l-10 -512h-250z" />
<glyph unicode="#" d="M2 338v229h197v217h-197v230h197v338h237v-338h213v338h238v-338h196v-230h-196v-217h196v-229h-196v-338h-238v338h-213v-338h-237v338h-197zM436 567h213v217h-213v-217z" />
<glyph unicode="$" d="M61 1022q0 201 134.5 308.5t369.5 107.5h10l27 200h154l-27 -213l266 -43l-22 -252q-150 16 -279 27l-43 -334q217 -70 295 -155.5t78 -261.5q0 -207 -130 -316.5t-349 -114.5l-31 -241q-154 6 -154 14l31 238q-63 6 -136 18t-115 21l-42 8l29 252q160 -23 297 -33 l43 338q-223 68 -314.5 163t-91.5 269zM342 1026q0 -53 34 -85t128 -67l37 289q-199 -8 -199 -137zM580 252q86 6 124.5 40.5t38.5 106.5q0 49 -27.5 81t-99.5 63z" />
<glyph unicode="%" d="M2 1138.5q0 139.5 63.5 218.5t192.5 79t192.5 -79t63.5 -218.5t-63.5 -219t-192.5 -79.5t-192.5 79.5t-63.5 219zM49 121l866 1302l134 -96l-867 -1302zM203 1138.5q0 -75.5 11 -105t44 -29.5t44 29.5t11 105t-11 104.5t-44 29t-44 -29t-11 -104.5zM571 303 q0 139 63.5 218t192.5 79t192.5 -79t63.5 -218t-63.5 -219t-192.5 -80t-192.5 80t-63.5 219zM772 303q0 -76 11.5 -105.5t44 -29.5t44 29.5t11.5 105.5t-11.5 104.5t-44 28.5t-44 -28.5t-11.5 -104.5z" />
<glyph unicode="&#x26;" horiz-adv-x="1433" d="M66 406q0 258 284 419q-61 84 -82.5 142.5t-21.5 158.5q0 158 113 247t303 89q203 0 310 -91t107 -267q0 -133 -60.5 -223t-209.5 -201l160 -164q41 174 49 238l266 -6q-31 -213 -102 -402l229 -213l-164 -184l-211 182q-125 -96 -226 -137t-255 -41q-223 0 -356 118.5 t-133 334.5zM348 408q0 -88 61.5 -142.5t153.5 -54.5q80 0 137.5 19.5t128.5 70.5l-313 334q-72 -43 -120 -104.5t-48 -122.5zM522 1085q0 -106 90 -202l29 -31q88 66 124 111t36 110q0 131 -139.5 131t-139.5 -119z" />
<glyph unicode="'" horiz-adv-x="204" d="M-41 1413h264l-10 -512h-250z" />
<glyph unicode="(" horiz-adv-x="532" d="M10 616.5q0 182.5 49.5 411.5t99.5 369l50 139h299q-23 -59 -54.5 -158.5t-86 -344.5t-54.5 -417q0 -170 48.5 -388t97.5 -351l49 -133h-299q-23 51 -55.5 139t-88 319.5t-55.5 414z" />
<glyph unicode=")" horiz-adv-x="532" d="M10 -256q23 57 54.5 152.5t86 333t54.5 407.5q0 172 -48 396t-98 364l-49 139h299q23 -55 55.5 -147.5t88 -331t55.5 -420.5t-49 -405.5t-100 -355.5l-50 -132h-299z" />
<glyph unicode="*" d="M215 938l215 160l-209 149l94 129l203 -141l84 240l154 -52l-78 -249h252v-152h-252l78 -246l-150 -45l-84 248l-211 -162z" />
<glyph unicode="+" d="M33 471v250h387v385h250v-385h391v-250h-391v-389h-250v389h-387z" />
<glyph unicode="," horiz-adv-x="348" d="M-12 -252l106 533h295l-125 -533h-276z" />
<glyph unicode="-" horiz-adv-x="901" d="M143 440v271h615v-271h-615z" />
<glyph unicode="." horiz-adv-x="507" d="M92 0v340h295v-340h-295z" />
<glyph unicode="/" d="M115 41l579 1434l262 -91l-579 -1433z" />
<glyph unicode="0" d="M14 668q0 373 133.5 540.5t393.5 167.5t393 -168t133 -540q0 -371 -132 -532t-394 -161t-394.5 161t-132.5 532zM317 668q0 -244 50.5 -333t175.5 -89t173 88t48 334q0 248 -49 343t-172 95q-125 0 -175.5 -96.5t-50.5 -341.5z" />
<glyph unicode="1" d="M57 1057l443 295h262v-1352h-283v1022l-291 -191z" />
<glyph unicode="2" d="M104 0v258l281 279q86 86 122 123.5t83 95t62.5 101.5t15.5 91q0 78 -51.5 113t-170.5 35q-61 0 -141 -7.5t-128 -15.5l-48 -8l-16 258q215 53 405 53q227 0 333.5 -97t106.5 -290q0 -152 -60 -261.5t-224 -268.5l-193 -189h500v-270h-877z" />
<glyph unicode="3" d="M94 25l27 254q229 -29 385 -29q211 0 211 151q0 143 -197 144h-272v256h272q66 0 119 52t53 105q0 143 -203 144q-72 0 -159.5 -6t-141.5 -14l-53 -7l-24 248q236 53 399 53q260 0 366.5 -89t106.5 -283q0 -104 -39 -171t-119 -120q96 -51 139.5 -114.5t43.5 -190.5 q0 -219 -110 -326t-351 -107q-90 0 -203 12.5t-181 24.5z" />
<glyph unicode="4" d="M45 197v229l336 926h311l-327 -885h260v407h282v-407h125v-270h-125v-217h-282v217h-580z" />
<glyph unicode="5" d="M72 43l30 252q268 -49 439 -49q82 0 132 48t50 130q0 86 -49 130t-139 44q-55 0 -108.5 -8t-80.5 -16l-27 -7l-217 47l45 740h826v-271h-572l-32 -258q131 37 196 37q225 0 337 -102.5t112 -319.5q0 -221 -121 -343t-342 -122q-94 0 -214 16.5t-193 34.5z" />
<glyph unicode="6" d="M45 670q0 383 143.5 544.5t419.5 161.5q76 0 177.5 -11t164.5 -23l64 -11l-25 -258q-209 31 -381 31q-272 0 -272 -289l43 12q43 12 107.5 25.5t107.5 13.5q231 0 348 -106.5t117 -331.5q0 -223 -131 -338t-365 -115q-518 0 -518 695zM334 571q0 -147 54 -238t175 -91 q205 0 205 186q0 180 -199 180q-49 -2 -107.5 -11t-92.5 -17z" />
<glyph unicode="7" d="M100 1081v273h865v-322l-488 -1069l-262 74l459 995v49h-574z" />
<glyph unicode="8" d="M37 344q0 131 40 204t130 148q-86 70 -117 136.5t-31 175.5q0 174 133.5 271t356.5 97t360.5 -98t137.5 -272q0 -119 -29 -178.5t-119 -131.5q90 -76 129 -143.5t39 -185.5q0 -201 -143.5 -296.5t-374.5 -95.5q-512 0 -512 369zM340 410q0 -164 209 -164q104 0 159.5 43 t55.5 121q0 102 -121 149h-180q-123 -47 -123 -149zM362 963q0 -86 101 -156h180q100 70 100 156q0 143 -190.5 143t-190.5 -143z" />
<glyph unicode="9" d="M31 924q0 219 134 335.5t361 116.5q266 0 392 -171t126 -521q0 -385 -143 -547t-420 -162q-76 0 -177 11.5t-165 22.5l-63 11l24 254q209 -31 381 -30q135 0 204 78.5t69 209.5l-43 -11q-43 -11 -107.5 -23.5t-107.5 -12.5q-223 0 -344 111t-121 328zM322 924 q-1 -181 198 -181q49 0 107.5 10.5t93.5 20.5l35 10q0 145 -58.5 235.5t-171.5 90.5q-96 0 -150 -47t-54 -139z" />
<glyph unicode=":" horiz-adv-x="471" d="M72 0v340h295v-340h-295zM72 592v340h295v-340h-295z" />
<glyph unicode=";" horiz-adv-x="493" d="M8 -231l127 553h295l-166 -553h-256zM115 592v340h295v-340h-295z" />
<glyph unicode="&#x3c;" d="M129 485v287l711 373v-287l-441 -225l441 -232v-286z" />
<glyph unicode="=" d="M43 238v249h973v-249h-973zM43 682v250h973v-250h-973z" />
<glyph unicode="&#x3e;" d="M129 115v286l440 232l-440 225v287l711 -373v-287z" />
<glyph unicode="?" horiz-adv-x="790" d="M10 1405q240 57 350 57q246 0 353.5 -91t107.5 -314q0 -104 -36.5 -185t-91 -129.5t-108 -85t-90 -73.5t-36.5 -76v-78h-295v84q0 78 37 137.5t88 98t103 74.5t89 85t37 111q0 84 -29.5 117.5t-140.5 33.5q-47 0 -122.5 -9t-129.5 -18l-53 -9zM164 0v340h295v-340h-295z " />
<glyph unicode="@" horiz-adv-x="2017" d="M82 535q0 473 256 715.5t694 242.5q449 0 676 -222t227 -646v-35q0 -326 -98 -468t-297 -142q-178 0 -266 88q-176 -86 -309 -86q-193 0 -288 119.5t-95 394.5q0 133 17 227t59 169t121 112.5t194 37.5q25 0 73 -11t82 -22l35 -12v27h275v-410q0 -164 10 -243.5 t30.5 -102t61.5 -22.5q66 0 92.5 69.5t26.5 274.5v37q0 324 -148.5 461t-478.5 137q-332 0 -503 -176.5t-171 -513.5q0 -375 153 -535t521 -160l293 19l10 -267q-205 -20 -303 -20q-236 0 -405.5 47t-295.5 156.5t-187.5 298t-61.5 461.5zM860 496q0 -135 29.5 -189.5 t97.5 -54.5q82 0 191 31q-14 86 -15 209v270q-90 20 -129 20q-109 0 -141.5 -56t-32.5 -230z" />
<glyph unicode="A" horiz-adv-x="1239" d="M41 0l313 1413h537l307 -1413h-283l-63 238h-475l-53 -238h-283zM436 510h363l-133 643h-93z" />
<glyph unicode="B" horiz-adv-x="1239" d="M143 0v1413h543q203 0 318.5 -87t115.5 -271q0 -135 -34.5 -207t-118.5 -125q96 -43 138 -115.5t42 -208.5q0 -203 -119 -301t-334 -98h-551zM422 260h258q90 0 133 38t43 124q0 158 -176 158h-258v-320zM422 836h252q158 0 157 168q1 149 -159 149h-250v-317z" />
<glyph unicode="C" horiz-adv-x="1093" d="M82 707q0 401 120 566t412 165q78 0 179.5 -14.5t164.5 -29.5l64 -16l-8 -248q-248 29 -359 29q-113 0 -171 -36t-84.5 -133t-26.5 -283q0 -268 56 -360.5t235 -92.5q45 0 133 8t152 16l65 7l6 -254q-244 -55 -406 -56q-309 0 -420.5 171t-111.5 561z" />
<glyph unicode="D" horiz-adv-x="1282" d="M143 0v1413h465q180 0 297 -39t181.5 -128t89 -208.5t24.5 -304.5q0 -195 -22.5 -319.5t-85 -224t-181.5 -144.5t-303 -45h-465zM422 268h186q80 0 136.5 21.5t88 56.5t49 98.5t22.5 127t5 161.5q0 80 -3 131t-13 102.5t-30.5 81t-54.5 53t-83 34t-117 10.5h-186v-877z " />
<glyph unicode="E" horiz-adv-x="1132" d="M143 0v1413h897v-270h-618v-316h496v-264h-496v-293h618v-270h-897z" />
<glyph unicode="F" horiz-adv-x="1101" d="M143 0v1413h897v-270h-618v-408h496v-268h-496v-467h-279z" />
<glyph unicode="G" horiz-adv-x="1218" d="M82 711q0 387 127 557t432 170q96 0 217 -14.5t195 -29.5l73 -16l-8 -243q-237 26 -419 26h-13q-184 0 -248.5 -90t-64.5 -360q0 -272 59.5 -366.5t245.5 -94.5l170 8v240h-127v252h405v-727q-293 -47 -475 -48q-317 0 -443 179.5t-126 556.5z" />
<glyph unicode="H" horiz-adv-x="1370" d="M143 0v1413h283v-557h518v557h283v-1413h-283v584h-518v-584h-283z" />
<glyph unicode="I" horiz-adv-x="569" d="M143 0v1413h283v-1413h-283z" />
<glyph unicode="J" horiz-adv-x="643" d="M61 119q156 0 156 131v1163h281q0 -217 1 -587.5t1 -590t-99.5 -299t-339.5 -79.5v262z" />
<glyph unicode="K" horiz-adv-x="1214" d="M143 0v1413h283v-606l184 20l230 586h325l-303 -702l312 -711h-326l-234 555l-188 -20v-535h-283z" />
<glyph unicode="L" horiz-adv-x="997" d="M143 0v1413h283v-1141h510v-272h-793z" />
<glyph unicode="M" horiz-adv-x="1736" d="M143 0v1413h451l276 -1016l277 1016h446v-1413h-282v1057h-31l-268 -996h-283l-272 996h-31v-1057h-283z" />
<glyph unicode="N" horiz-adv-x="1435" d="M143 0v1413h445l391 -1057h31v1057h282v-1413h-430l-405 1057h-31v-1057h-283z" />
<glyph unicode="O" horiz-adv-x="1318" d="M82 696q0 375 131 558.5t446.5 183.5t446.5 -183.5t131 -558.5q0 -371 -130 -546t-447.5 -175t-447.5 175.5t-130 545.5zM373 696q0 -240 60.5 -344t226 -104t226 104.5t60.5 343.5q0 244 -61.5 356.5t-225 112.5t-225 -112.5t-61.5 -356.5z" />
<glyph unicode="P" horiz-adv-x="1212" d="M143 0v1413h512q496 0 496 -493q0 -248 -126 -382.5t-370 -134.5h-229v-403h-283zM426 676h227q211 0 211 244q0 221 -211 221h-227v-465z" />
<glyph unicode="Q" horiz-adv-x="1318" d="M82 696q0 375 131 558.5t446.5 183.5t446.5 -183.5t131 -558.5q0 -469 -211 -624l166 -271l-258 -120l-184 299q-57 -4 -91 -5q-317 0 -447 175.5t-130 545.5zM373 696q0 -240 60.5 -344t226 -104t226 104.5t60.5 343.5q0 244 -61.5 356.5t-225 112.5t-225 -112.5 t-61.5 -356.5z" />
<glyph unicode="R" horiz-adv-x="1257" d="M143 0v1413h541q254 0 373 -110.5t119 -358.5q0 -274 -205 -403l198 -541h-309l-164 457h-270v-457h-283zM426 725h262q199 0 199 215q0 205 -203 205h-258v-420z" />
<glyph unicode="S" d="M61 1022q0 201 134.5 308.5t369.5 107.5q70 0 177.5 -14.5t180.5 -27.5l72 -14l-22 -252q-289 33 -408 33q-223 0 -223 -137q0 -66 55.5 -102.5t233.5 -92.5q229 -74 311 -159.5t82 -265.5q0 -209 -135 -320t-361 -111q-70 0 -177 14.5t-180 28.5l-73 15l29 252 q254 -35 399 -35q115 0 166 34.5t51 114.5q0 66 -51 104t-198 81q-240 70 -336.5 165t-96.5 273z" />
<glyph unicode="T" horiz-adv-x="983" d="M-20 1141v272h1024v-272h-369v-1141h-283v1141h-372z" />
<glyph unicode="U" horiz-adv-x="1306" d="M123 471v942h283v-942q0 -117 64.5 -165t182.5 -48q248 0 248 213v942h283v-942q0 -256 -132 -372.5t-398.5 -116.5t-398.5 116.5t-132 372.5z" />
<glyph unicode="V" horiz-adv-x="1255" d="M41 1413h297l242 -1143h92l246 1143h296l-327 -1413h-522z" />
<glyph unicode="W" horiz-adv-x="1927" d="M49 1413h297l213 -1122h31l213 1122h321l213 -1122h31l213 1122h297l-315 -1413h-420l-180 997l-179 -997h-419z" />
<glyph unicode="X" horiz-adv-x="1189" d="M31 0l381 700l-381 713h313l252 -493l250 493h313l-375 -713l375 -700h-313l-250 485l-252 -485h-313z" />
<glyph unicode="Y" horiz-adv-x="1169" d="M20 1413h314l252 -493l250 493h313l-420 -811v-602h-283v604z" />
<glyph unicode="Z" horiz-adv-x="1167" d="M123 0v272l559 838v31h-559v272h921v-272l-559 -838v-31h559v-272h-921z" />
<glyph unicode="[" horiz-adv-x="614" d="M57 1534h518v-270h-235v-1246h235v-270h-516z" />
<glyph unicode="\" horiz-adv-x="1122" d="M70 1360l307 137l649 -1442l-305 -129z" />
<glyph unicode="]" horiz-adv-x="614" d="M57 18h236v1246h-236v270h518l-2 -1786h-516v270z" />
<glyph unicode="^" d="M29 641l370 711h287l371 -711h-287l-223 440l-232 -440h-286z" />
<glyph unicode="_" horiz-adv-x="1064" d="M55 31h877v-250h-877v250z" />
<glyph unicode="`" horiz-adv-x="548" d="M-37 1343l84 244l526 -188l-75 -215z" />
<glyph unicode="a" horiz-adv-x="1081" d="M82 311q0 164 88 232.5t270 81.5l219 16v53q0 111 -120 111l-383 -17l-9 199q258 59 426 60q361 -1 361 -353v-415q4 -49 15.5 -70t51.5 -27l-8 -207q-104 0 -166.5 14.5t-126.5 57.5q-147 -72 -301 -72q-317 0 -317 336zM358 319q0 -118 99 -118h2q31 0 81 8t85 15l34 7 v220l-186 -17q-115 -10 -115 -115z" />
<glyph unicode="b" horiz-adv-x="1118" d="M137 4v1430h275v-435q131 48 221 48q215 0 314.5 -119t99.5 -406q0 -319 -115 -433t-395 -114q-43 0 -143.5 7.5t-178.5 14.5zM412 233q94 -10 125 -10q137 0 184 64.5t47 234.5q0 147 -44 209t-128 62l-184 -17v-543z" />
<glyph unicode="c" horiz-adv-x="892" d="M72 522q0 272 102.5 398.5t329.5 126.5q53 0 135 -11.5t137 -21.5l55 -10l-8 -236q-162 16 -239 16q-143 0 -188.5 -55t-45.5 -207q0 -168 46 -226t190 -58l237 16l8 -236q-219 -43 -333 -43q-227 0 -326.5 128t-99.5 419z" />
<glyph unicode="d" horiz-adv-x="1128" d="M72 522q0 272 105.5 398.5t318.5 126.5q33 0 88 -7.5t94 -13.5l39 -6v414h274v-1434h-274v41q-141 -63 -246 -64q-223 0 -311 131.5t-88 413.5zM350 522q0 -158 36 -223.5t132 -67.5q35 0 85 7.5t82 14.5l32 7v520q-113 18 -201 19q-166 0 -166 -277z" />
<glyph unicode="e" horiz-adv-x="1038" d="M72 498q0 549 452 549q446 0 447 -461l-21 -193h-602q2 -88 49 -127t158 -39q74 0 169 5.5t153 9.5l57 4l4 -213q-236 -57 -426 -58q-231 0 -335.5 123t-104.5 400zM346 604h354q0 109 -39.5 154t-136 45t-136.5 -47.5t-42 -151.5z" />
<glyph unicode="f" horiz-adv-x="702" d="M35 774v248h110v47q0 219 65.5 302t233.5 83q31 0 89.5 -6t101.5 -13l43 -8l-4 -223q-90 4 -156 4q-57 0 -77.5 -31.5t-20.5 -109.5v-45h248v-248h-248v-774h-275v774h-110z" />
<glyph unicode="g" horiz-adv-x="1101" d="M72 -186q0 129 147 243q-76 51 -76 156q0 23 20.5 63.5t40.5 70.5l19 30q-139 100 -139 305q0 186 117.5 274t312.5 88q41 0 92 -6t83 -13l32 -7l315 10v-219l-139 12q45 -70 45 -139q0 -205 -104.5 -282.5t-327.5 -77.5q-47 0 -84 8q-20 -53 -20 -80q0 -41 35.5 -54.5 t162.5 -13.5q258 0 352.5 -67.5t94.5 -241.5q0 -176 -135.5 -260t-350.5 -84q-246 0 -369.5 61.5t-123.5 223.5zM342 -158q0 -88 225 -88q207 0 207 103q0 55 -36.5 70.5t-155.5 17.5l-185 14q-55 -55 -55 -117zM358 682q0 -152 156 -152q158 0 158 152q0 149 -154 149h-2 q-158 0 -158 -149z" />
<glyph unicode="h" horiz-adv-x="1148" d="M137 0v1434h275v-441q158 53 254 54q205 0 282.5 -124t77.5 -386v-537h-274v537q0 129 -29 191.5t-115 62.5q-31 0 -80 -6.5t-83 -12.5l-33 -6v-766h-275z" />
<glyph unicode="i" horiz-adv-x="548" d="M137 0v1022h275v-1022h-275zM137 1155v281h275v-281h-275z" />
<glyph unicode="j" horiz-adv-x="555" d="M-70 -244q137 84 175 131t38 162v973h275v-975q0 -209 -73 -308t-292 -210zM143 1174v280h275v-280h-275z" />
<glyph unicode="k" horiz-adv-x="1060" d="M137 0v1434h275v-801l104 20l203 369h307l-264 -483l278 -539h-309l-209 385l-110 -20v-365h-275z" />
<glyph unicode="l" horiz-adv-x="548" d="M137 0v1434h275v-1434h-275z" />
<glyph unicode="m" horiz-adv-x="1734" d="M137 0v1022h273v-49q68 33 139 55q63 18 102 19q166 0 250 -84q225 84 350 84q203 0 282 -120t79 -392v-535h-275v422q0 235 -19 291q-27 78 -124 78q-37 0 -84 -10.5t-77 -19.5l-29 -9q8 -141 8 -222v-530h-275v526q0 150 -26.5 207.5t-116.5 57.5q-31 0 -76 -8.5 t-76 -17.5l-30 -9v-756h-275z" />
<glyph unicode="n" horiz-adv-x="1148" d="M137 0v1022h275v-57q137 82 254 82q205 0 282.5 -124t77.5 -388v-535h-274v545q0 131 -31 193.5t-123 62.5q-43 0 -89 -9.5t-72 -18.5l-25 -9v-764h-275z" />
<glyph unicode="o" d="M72 512q0 254 108.5 394.5t362.5 140.5t362.5 -140.5t108.5 -394.5t-108.5 -395.5t-362.5 -141.5t-362.5 141.5t-108.5 395.5zM350 512q0 -150 42 -219.5t150.5 -69.5t150.5 69.5t42 219.5t-42 218.5t-150.5 68.5t-150.5 -68.5t-42 -218.5z" />
<glyph unicode="p" horiz-adv-x="1118" d="M137 -430v1452h275v-47q131 72 231 72q209 0 306.5 -120t97.5 -407q0 -313 -109 -429t-356 -116q-33 0 -76 4.5t-69 8.5l-25 4v-422h-275zM412 233q92 -10 149 -10q121 0 164 65.5t43 231.5q0 275 -178 275q-31 0 -76 -10.5t-74 -19.5l-28 -9v-523z" />
<glyph unicode="q" horiz-adv-x="1097" d="M72 500q0 547 467 547q53 0 158.5 -6.5t184.5 -12.5l79 -6v-1452h-275v430q-53 -25 -147 -25q-467 0 -467 525zM346 500q0 -276 193 -277q31 0 67.5 9.5t58.5 17.5l21 8v537q-96 4 -147 4q-193 0 -193 -299z" />
<glyph unicode="r" horiz-adv-x="737" d="M137 0v1022h275v-96q123 90 284 121v-295q-80 -16 -151.5 -38t-102.5 -36l-30 -14v-664h-275z" />
<glyph unicode="s" horiz-adv-x="1017" d="M96 713q0 168 111.5 251t286.5 83q66 0 165 -13.5t165 -25.5l67 -13l-4 -229q-254 33 -373 33q-86 0 -114.5 -18.5t-28.5 -61.5q0 -35 36.5 -50.5t155.5 -33.5q205 -33 282 -102.5t77 -225.5q0 -332 -414 -332q-68 0 -166 12.5t-163 24.5l-64 13l8 231q254 -33 358 -33 q94 0 130 18.5t36 59.5q0 35 -30.5 51.5t-135.5 34.5q-213 37 -299 102.5t-86 223.5z" />
<glyph unicode="t" horiz-adv-x="716" d="M31 774v248h121v287h274v-287h252v-248h-252v-387q0 -61 3 -87t22.5 -44t60.5 -18l156 4l12 -236q-137 -31 -209 -31q-184 0 -251.5 83t-67.5 307v409h-121z" />
<glyph unicode="u" horiz-adv-x="1148" d="M123 487v535h274v-535q0 -156 23.5 -210t120.5 -54q31 0 80 9.5t82 17.5l34 8v764h275v-1022h-275v43q-160 -68 -254 -68q-215 0 -287.5 117t-72.5 395z" />
<glyph unicode="v" horiz-adv-x="991" d="M16 1022h285l168 -795h55l172 795h279l-246 -1022h-467z" />
<glyph unicode="w" horiz-adv-x="1536" d="M25 1022h270l125 -774h49l156 756h286l156 -756h49l125 774h270l-190 -1022h-440l-115 627l-117 -627h-434z" />
<glyph unicode="x" horiz-adv-x="956" d="M20 0l279 510l-279 512h293l164 -315l166 315h293l-281 -512l281 -510h-293l-166 313l-164 -313h-293z" />
<glyph unicode="y" horiz-adv-x="993" d="M16 1022h271l186 -754h47l187 754h270l-361 -1452h-268l105 430h-185z" />
<glyph unicode="z" horiz-adv-x="976" d="M109 0v248l430 528h-430v248h759v-248l-430 -528h430v-248h-759z" />
<glyph unicode="{" horiz-adv-x="694" d="M49 526v230q113 29 153 69.5t40 114.5q0 27 -7.5 123t-7.5 137q0 193 103.5 271.5t339.5 87.5v-271q-94 -8 -120 -27.5t-26 -80.5q0 -35 7.5 -134.5t7.5 -127.5q0 -121 -45 -179.5t-160 -95.5q113 -37 159 -102.5t46 -188.5q0 -29 -7.5 -117t-7.5 -122q0 -63 27 -86 t119 -31v-270q-231 8 -337 90t-106 262q0 43 7.5 134t7.5 114q0 76 -41 123t-152 77z" />
<glyph unicode="|" d="M391 -471v2007h283v-2007h-283z" />
<glyph unicode="}" horiz-adv-x="694" d="M49 -4q92 8 119 30.5t27 86.5q0 35 -7.5 122.5t-7.5 116.5q0 123 46 188.5t159 102.5q-115 37 -160 95.5t-45 179.5q0 29 7.5 128t7.5 134q0 61 -26 80.5t-120 27.5v271q236 -8 339.5 -87t103.5 -272q0 -41 -7.5 -137t-7.5 -123q0 -74 40 -115t153 -69v-230 q-111 -31 -152 -78t-41 -122q0 -23 7.5 -114t7.5 -134q0 -180 -105.5 -262t-337.5 -90v270z" />
<glyph unicode="~" d="M119 696q12 12 34.5 30.5t91 48.5t134.5 30q53 0 183 -45t179 -45q35 0 87.5 19.5t86.5 39.5l35 21l17 -256q-10 -12 -31 -31t-83 -48.5t-124 -29.5q-57 0 -194.5 45t-172.5 45q-43 0 -99 -20.5t-90 -40.5l-34 -21z" />
<glyph unicode="&#xa1;" d="M406 -412l10 901h282l11 -901h-303zM410 682v340h295v-340h-295z" />
<glyph unicode="&#xa2;" horiz-adv-x="894" d="M25 512q0 420 372 451v206h230v-217l157 -20l-8 -236q-162 6 -239 6q-133 0 -183.5 -38.5t-50.5 -151.5t50 -153t186 -40l237 9l8 -236q-76 -12 -157 -22v-224h-230v213q-373 27 -372 453z" />
<glyph unicode="&#xa3;" d="M131 0v236h152v417h-131v240h131v133q0 367 368 367q53 0 122 -8.5t112 -15.5l43 -7v-234q-160 18 -269 19q-106 0 -106 -133v-121h313v-240h-313v-417h254l141 32l43 -231l-166 -35z" />
<glyph unicode="&#xa4;" d="M31 193l149 149q-84 172 0 348l-149 150l188 188l150 -149q172 82 348 0l149 149l189 -188l-150 -150q82 -176 0 -348l150 -149l-189 -189l-149 150q-176 -84 -348 0l-150 -150zM389 516.5q0 -63.5 45 -109t108.5 -45.5t108.5 45.5t45 109t-45 108.5t-108.5 45 t-108.5 -45t-45 -108.5z" />
<glyph unicode="&#xa5;" horiz-adv-x="1105" d="M-10 1352h313l252 -432l250 432h313l-293 -527h183v-229h-310v-72h310v-229h-310v-295h-282v295h-318v229h318v72h-318v229h189z" />
<glyph unicode="&#xa6;" d="M391 389h283v-860h-283v860zM391 672v864h283v-864h-283z" />
<glyph unicode="&#xa7;" d="M102 436q0 72 41 153t90 122q-90 66 -90 221q0 375 445 375q66 0 156 -12.5t147 -24.5l57 -13l-12 -221q-231 33 -330 33q-119 0 -157.5 -28.5t-38.5 -104.5q0 -45 55 -68.5t223 -64.5q184 -45 247.5 -104.5t63.5 -204.5q0 -139 -102 -285q41 -39 59.5 -84t18.5 -139 q0 -199 -105.5 -287t-339.5 -88q-63 0 -158.5 12t-158.5 24l-63 11l26 221q221 -31 334 -31q106 0 154.5 28t48.5 89q0 55 -51.5 80t-239.5 72q-180 45 -250 109.5t-70 209.5zM379 487q0 -59 23.5 -81.5t99.5 -43.5q86 -25 182 -57q37 47 37 150q0 51 -33 76.5t-133 52.5 q-16 4 -67.5 16t-73.5 18q-35 -53 -35 -131z" />
<glyph unicode="&#xa8;" horiz-adv-x="548" d="M-61 1241v270h262v-270h-262zM381 1241v270h262v-270h-262z" />
<glyph unicode="&#xa9;" d="M18 887q0 233 149.5 391t375.5 158q231 0 377.5 -161t146.5 -386q0 -231 -146.5 -388t-381.5 -157q-219 0 -370 158t-151 385zM147 889q0 -172 113 -293t281 -121q172 0 285.5 120t113.5 294q0 172 -114.5 295t-282.5 123t-282 -123t-114 -295zM279 899q0 158 64.5 231.5 t205.5 73.5l156 -10l-3 -217q-55 12 -153 12q-29 0 -44.5 -28.5t-15.5 -61.5q0 -41 16.5 -76t43.5 -35l153 11v-211q-53 -16 -153 -17q-143 0 -206.5 76t-63.5 252z" />
<glyph unicode="&#xaa;" horiz-adv-x="1060" d="M283 954q0 143 153 156l209 14v47q0 66 -24.5 89.5t-81.5 23.5l-213 -14l-4 63q141 16 217 17q88 0 129 -42.5t41 -138.5v-274q12 -41 75 -47l-4 -57q-66 2 -110 45q-129 -45 -244 -45q-63 0 -103 45t-40 118zM350 950q0 -94 82 -94q41 0 94.5 8t85.5 18l33 9v174 l-199 -12q-51 -4 -73.5 -28t-22.5 -75z" />
<glyph unicode="&#xab;" horiz-adv-x="1372" d="M184 397v197l457 336v-277l-223 -153l223 -176v-277zM764 397v197l457 336v-277l-224 -153l224 -176v-277z" />
<glyph unicode="&#xac;" d="M98 487v267h883v-561h-266v294h-617z" />
<glyph unicode="&#xad;" horiz-adv-x="901" d="M143 440v271h615v-271h-615z" />
<glyph unicode="&#xae;" d="M-20 889q0 246 151.5 413.5t411.5 167.5t417.5 -166.5t157.5 -414.5q0 -242 -158.5 -413t-416.5 -171q-260 0 -411.5 168t-151.5 416zM106 889q0 -186 128 -322.5t308.5 -136.5t309.5 135t129 324q0 193 -129 326t-309 133q-186 0 -311.5 -132t-125.5 -327zM287 565v645 h258q254 0 254 -209q0 -80 -16.5 -122.5t-61.5 -79.5l92 -234h-211l-65 207h-54v-207h-196zM481 918h58q70 0 69 69q0 76 -71 76h-56v-145z" />
<glyph unicode="&#xaf;" horiz-adv-x="548" d="M-51 1274v237h669v-237h-669z" />
<glyph unicode="&#xb0;" d="M193 1155q0 137 84.5 222t222 85t222.5 -85t85 -222t-85 -221t-222.5 -84t-222 84t-84.5 221zM346 1155q0 -70 42 -113t111.5 -43t113.5 43t44 113t-44 114t-113.5 44t-111.5 -44t-42 -114z" />
<glyph unicode="&#xb1;" d="M33 61v250h1028v-250h-1028zM33 614v250h387v242h250v-242h391v-250h-391v-225h-250v225h-387z" />
<glyph unicode="&#xb2;" horiz-adv-x="542" d="M29 979v184l149 121q94 76 94 117q0 31 -75 31l-156 -13l-8 203q150 18 241 18q125 0 176.5 -47t51.5 -157q0 -68 -26.5 -114t-88.5 -91l-78 -57h193v-195h-473z" />
<glyph unicode="&#xb3;" horiz-adv-x="542" d="M41 973l12 190q125 -12 193 -12q59 0 59 33q0 29 -53 28h-135v174h131q41 0 41 29q0 31 -56 31l-172 -10l-12 186q139 18 221 18q248 0 248 -182q0 -109 -59 -143q72 -31 71 -150q0 -104 -63.5 -156.5t-177.5 -52.5z" />
<glyph unicode="&#xb4;" horiz-adv-x="548" d="M-2 1401l526 188l90 -260l-534 -160z" />
<glyph unicode="&#xb5;" d="M113 -451v1475h274v-590q2 -119 28.5 -165t114.5 -46q31 0 80 9.5t83 17.5l34 8v764h274v-1022h-274v43q-160 -68 -254 -68q-46 0 -86 7v-433h-274z" />
<glyph unicode="&#x3bc;" d="M113 -451v1475h274v-590q2 -119 28.5 -165t114.5 -46q31 0 80 9.5t83 17.5l34 8v764h274v-1022h-274v43q-160 -68 -254 -68q-46 0 -86 7v-433h-274z" />
<glyph unicode="&#xb6;" d="M16 1028q0 178 106.5 292t278.5 114h678v-211h-73v-1223h-234v1223h-127v-1223h-233v627h-15q-172 0 -276.5 111.5t-104.5 289.5z" />
<glyph unicode="&#xb7;" horiz-adv-x="507" d="M92 424v340h295v-340h-295z" />
<glyph unicode="&#xb8;" horiz-adv-x="1705" d="M745 -471l9 160q63 -2 98 -2q78 0 78 53q0 45 -78 45h-49v217h108v-78q131 -2 191.5 -38.5t60.5 -145.5q0 -117 -59.5 -175.5t-167.5 -58.5q-39 0 -87 5.5t-76 11.5z" />
<glyph unicode="&#xb9;" horiz-adv-x="542" d="M33 1464l217 154h196v-639h-217v399l-96 -65z" />
<glyph unicode="&#xba;" horiz-adv-x="1077" d="M295 1073q-1 277 235 277q119 0 175.5 -66.5t56.5 -210.5q0 -283 -232 -282q-236 0 -235 282zM365 1073q0 -117 38.5 -167t126.5 -50t125 50t37 167t-37 164t-125 47t-126.5 -48t-38.5 -163z" />
<glyph unicode="&#xbb;" horiz-adv-x="1372" d="M152 47v277l223 176l-223 153v277l456 -336v-197zM731 47v277l223 176l-223 153v277l457 -336v-197z" />
<glyph unicode="&#xbf;" horiz-adv-x="790" d="M10 -35q0 104 37 185t90 129.5t107.5 85t91.5 73.5t37 76v78h295v-84q0 -78 -37 -137.5t-88 -98.5t-103.5 -74.5t-89.5 -85t-37 -110.5q0 -84 30 -118t140 -34q47 0 123 9.5t129 18.5l53 9l33 -270q-240 -57 -350 -57q-246 0 -353.5 91t-107.5 314zM373 682v340h295v-340 h-295z" />
<glyph unicode="&#xc0;" horiz-adv-x="1236" d="M49 0l313 1413h537l307 -1413h-282l-64 238h-475l-53 -238h-283zM279 1696l90 260l526 -189l-82 -231zM444 510h363l-133 643h-92z" />
<glyph unicode="&#xc1;" horiz-adv-x="1236" d="M49 0l313 1413h537l307 -1413h-282l-64 238h-475l-53 -238h-283zM309 1810l527 189l90 -260l-535 -160zM444 510h363l-133 643h-92z" />
<glyph unicode="&#xc2;" horiz-adv-x="1236" d="M49 0l313 1413h537l307 -1413h-282l-64 238h-475l-53 -238h-283zM242 1597l268 353h221l270 -353h-292l-86 125l-88 -125h-293zM444 510h363l-133 643h-92z" />
<glyph unicode="&#xc3;" horiz-adv-x="1239" d="M41 0l313 1413h537l307 -1413h-283l-63 238h-475l-53 -238h-283zM195 1802q12 14 33.5 36t79 58.5t106.5 36.5q72 0 196.5 -44t145.5 -44q25 0 66.5 19.5t71.5 40.5l30 20l59 -209q-12 -14 -33.5 -35.5t-79 -57.5t-106.5 -36q-57 0 -187.5 45t-158.5 45q-25 0 -66 -20.5 t-69 -40.5l-29 -21zM436 510h363l-133 643h-93z" />
<glyph unicode="&#xc4;" horiz-adv-x="1236" d="M49 0l313 1413h537l307 -1413h-282l-64 238h-475l-53 -238h-283zM324 1651v270h262v-270h-262zM444 510h363l-133 643h-92zM766 1651v270h262v-270h-262z" />
<glyph unicode="&#xc5;" horiz-adv-x="1236" d="M49 0l301 1360q-27 53 -26 117q0 121 88 189.5t219 68.5t219 -68.5t88 -189.5q0 -66 -29 -117l297 -1360h-282l-64 238h-475l-53 -238h-283zM444 510h363l-133 643h-92zM535 1477q0 -51 59 -64h74q59 12 59 64q0 31 -25.5 49t-70.5 18t-70.5 -18t-25.5 -49z" />
<glyph unicode="&#xc6;" horiz-adv-x="1839" d="M98 0l377 1413h1299v-270h-619v-293h496v-268h-496v-312h619v-270h-897v238h-437l-59 -238h-283zM510 510h367l2 633h-205z" />
<glyph unicode="&#xc7;" horiz-adv-x="1099" d="M82 707q0 401 120 566t412 165q78 0 179.5 -14.5t164.5 -29.5l64 -16l-8 -248q-248 29 -359 29q-113 0 -171 -36t-84.5 -133t-26.5 -283q0 -268 56 -360.5t235 -92.5q45 0 133 8t152 16l65 7l6 -254q-227 -51 -389 -56v-51q131 -2 191.5 -38.5t60.5 -145.5 q0 -117 -59.5 -175.5t-168.5 -58.5q-39 0 -87 5.5t-75 11.5l-28 6l8 160q63 -2 98 -2q78 0 78 53q0 45 -78 45h-49v195q-252 23 -346 194.5t-94 532.5z" />
<glyph unicode="&#xc8;" horiz-adv-x="1132" d="M143 0v1413h897v-270h-618v-316h496v-264h-496v-293h618v-270h-897zM279 1696l90 260l526 -189l-82 -231z" />
<glyph unicode="&#xc9;" horiz-adv-x="1171" d="M154 0v1413h897v-270h-619v-316h496v-264h-496v-293h619v-270h-897zM301 1810l526 189l91 -260l-535 -160z" />
<glyph unicode="&#xca;" horiz-adv-x="1171" d="M154 0v1413h897v-270h-619v-316h496v-264h-496v-293h619v-270h-897zM256 1597l268 353h221l271 -353h-293l-86 125l-88 -125h-293z" />
<glyph unicode="&#xcb;" horiz-adv-x="1171" d="M154 0v1413h897v-270h-619v-316h496v-264h-496v-293h619v-270h-897zM276 1651v270h263v-270h-263zM719 1651v270h262v-270h-262z" />
<glyph unicode="&#xcc;" horiz-adv-x="569" d="M-70 1696l90 260l527 -189l-82 -231zM143 0v1413h283v-1413h-283z" />
<glyph unicode="&#xcd;" horiz-adv-x="569" d="M-10 1790l526 188l90 -260l-534 -159zM143 0v1413h283v-1413h-283z" />
<glyph unicode="&#xce;" horiz-adv-x="569" d="M-111 1608l269 305h252l268 -305h-307l-84 88l-84 -88h-314zM143 0v1413h283v-1413h-283z" />
<glyph unicode="&#xcf;" horiz-adv-x="569" d="M-72 1626v270h262v-270h-262zM143 0v1413h283v-1413h-283zM383 1626v270h262v-270h-262z" />
<glyph unicode="&#xd0;" horiz-adv-x="1282" d="M33 571v271h110v571h465q180 0 297 -39t181.5 -128t89 -208.5t24.5 -304.5q0 -195 -22.5 -319.5t-85 -224t-181 -144.5t-303.5 -45h-465v571h-110zM422 268h186q80 0 136.5 21.5t88 56.5t49 98.5t22.5 127t5 161.5q0 80 -3 131t-13 102.5t-30.5 81t-54.5 53t-83 34 t-117 10.5h-186v-303h266v-271h-266v-303z" />
<glyph unicode="&#xd1;" horiz-adv-x="1406" d="M121 0v1413h444l391 -1057h31v1057h283v-1413h-430l-406 1057h-31v-1057h-282zM305 1821q12 14 33.5 35.5t79 58.5t106.5 37q72 0 176.5 -44t124.5 -44q25 0 67 20.5t72 39.5l29 20l60 -207q-12 -14 -34 -36t-79 -57.5t-106 -35.5q-57 0 -167 45t-139 45 q-25 0 -65.5 -20.5t-69.5 -41.5l-28 -20z" />
<glyph unicode="&#xd2;" horiz-adv-x="1343" d="M94 696q0 375 131 558.5t446.5 183.5t446.5 -183.5t131 -558.5q0 -371 -130 -546t-447.5 -175t-447.5 175.5t-130 545.5zM332 1696l90 260l526 -189l-82 -231zM385 696q0 -240 60.5 -344t226.5 -104t226 104.5t60 343.5q0 244 -61 356.5t-225 112.5t-225.5 -112.5 t-61.5 -356.5z" />
<glyph unicode="&#xd3;" horiz-adv-x="1343" d="M94 696q0 375 131 558.5t446.5 183.5t446.5 -183.5t131 -558.5q0 -371 -130 -546t-447.5 -175t-447.5 175.5t-130 545.5zM334 1810l526 189l90 -260l-534 -160zM385 696q0 -240 60.5 -344t226.5 -104t226 104.5t60 343.5q0 244 -61 356.5t-225 112.5t-225.5 -112.5 t-61.5 -356.5z" />
<glyph unicode="&#xd4;" horiz-adv-x="1343" d="M94 696q0 375 131 558.5t446.5 183.5t446.5 -183.5t131 -558.5q0 -371 -130 -546t-447.5 -175t-447.5 175.5t-130 545.5zM289 1597l268 353h221l271 -353h-293l-86 125l-88 -125h-293zM385 696q0 -240 60.5 -344t226.5 -104t226 104.5t60 343.5q0 244 -61 356.5 t-225 112.5t-225.5 -112.5t-61.5 -356.5z" />
<glyph unicode="&#xd5;" horiz-adv-x="1343" d="M94 696q0 375 131 558.5t446.5 183.5t446.5 -183.5t131 -558.5q0 -371 -130 -546t-447.5 -175t-447.5 175.5t-130 545.5zM276 1821q12 14 34 35.5t79 58.5t107 37q72 0 176 -44t125 -44q25 0 66.5 20.5t71.5 39.5l30 20l59 -207q-12 -14 -33.5 -36t-79 -57.5 t-106.5 -35.5q-57 0 -167 45t-138 45q-25 0 -66 -20.5t-69 -41.5l-29 -20zM385 696q0 -240 60.5 -344t226.5 -104t226 104.5t60 343.5q0 244 -61 356.5t-225 112.5t-225.5 -112.5t-61.5 -356.5z" />
<glyph unicode="&#xd6;" horiz-adv-x="1343" d="M94 696q0 375 131 558.5t446.5 183.5t446.5 -183.5t131 -558.5q0 -371 -130 -546t-447.5 -175t-447.5 175.5t-130 545.5zM309 1651v270h262v-270h-262zM385 696q0 -240 60.5 -344t226.5 -104t226 104.5t60 343.5q0 244 -61 356.5t-225 112.5t-225.5 -112.5t-61.5 -356.5z M752 1651v270h262v-270h-262z" />
<glyph unicode="&#xd7;" d="M332 254l354 356l-354 357l176 176l354 -357l357 357l178 -176l-357 -357l357 -356l-178 -176l-357 354l-354 -354z" />
<glyph unicode="&#xd8;" horiz-adv-x="1318" d="M82 696q0 375 131 558.5t446 183.5q106 0 207 -27l119 256l215 -90l-131 -281q168 -174 168 -600q0 -371 -130.5 -546t-447.5 -175q-100 0 -196 21l-119 -256l-207 108l119 254q-174 160 -174 594zM373 696q0 -184 30 -278l342 737q-41 10 -86 10q-164 0 -225 -112.5 t-61 -356.5zM584 254q32 -6 75 -6q166 0 226.5 104.5t60.5 343.5q0 172 -28 275z" />
<glyph unicode="&#xd9;" horiz-adv-x="1306" d="M12 1696l90 260l527 -189l-82 -231zM123 471v942h283v-942q0 -117 64.5 -165t182.5 -48q248 0 248 213v942h283v-942q0 -256 -132 -372.5t-398.5 -116.5t-398.5 116.5t-132 372.5z" />
<glyph unicode="&#xda;" horiz-adv-x="1314" d="M133 471v942h283v-942q0 -117 64.5 -165t183.5 -48q248 0 247 213v942h283v-942q0 -256 -132 -372.5t-398.5 -116.5t-398.5 116.5t-132 372.5zM330 1810l526 189l90 -260l-534 -160z" />
<glyph unicode="&#xdb;" horiz-adv-x="1314" d="M133 471v942h283v-942q0 -117 64.5 -165t183.5 -48q248 0 247 213v942h283v-942q0 -256 -132 -372.5t-398.5 -116.5t-398.5 116.5t-132 372.5zM285 1597l268 353h221l270 -353h-292l-86 125l-88 -125h-293z" />
<glyph unicode="&#xdc;" horiz-adv-x="1314" d="M133 471v942h283v-942q0 -117 64.5 -165t183.5 -48q248 0 247 213v942h283v-942q0 -256 -132 -372.5t-398.5 -116.5t-398.5 116.5t-132 372.5zM369 1651v270h262v-270h-262zM811 1651v270h262v-270h-262z" />
<glyph unicode="&#xdd;" horiz-adv-x="1105" d="M-10 1413h313l252 -493l250 493h313l-420 -811v-602h-282v604zM184 1810l527 189l90 -260l-535 -160z" />
<glyph unicode="&#xde;" d="M45 0v1413h283v-201h229q500 0 500 -489q0 -248 -128 -384t-372 -136h-229v-203h-283zM328 477h227q104 0 159.5 64.5t55.5 181.5q0 219 -215 219h-227v-465z" />
<glyph unicode="&#xdf;" horiz-adv-x="1286" d="M137 0v1069q0 207 116 296t357 89q248 0 359.5 -72.5t111.5 -244.5q0 -111 -44 -162t-148 -98q-74 -33 -97.5 -51.5t-23.5 -41.5q0 -33 33 -58.5t160 -82.5q145 -68 199 -128t54 -179q0 -205 -108.5 -279.5t-378.5 -74.5q-37 0 -97.5 12t-102.5 24l-42 13l9 213 q199 -8 233 -8q205 0 205 59q0 41 -34 69.5t-153 79.5q-145 61 -202.5 130t-57.5 180q0 98 38 155.5t120 91.5q98 41 127 62.5t29 52.5q0 51 -45 70.5t-144 19.5q-199 0 -198 -143v-1063h-275z" />
<glyph unicode="&#xe0;" horiz-adv-x="1097" d="M43 311q0 164 88 232.5t270 81.5l220 16v53q0 111 -121 111l-383 -17l-8 199q258 59 426 60q360 -1 360 -353v-415q4 -49 15.5 -70t52.5 -27l-9 -207q-104 0 -166.5 14.5t-125.5 57.5q-147 -72 -302 -72q-317 0 -317 336zM168 1343l84 244l526 -188l-76 -215zM319 319 q0 -119 101 -118q31 0 81 8t85 15l35 7v220l-187 -17q-115 -10 -115 -115z" />
<glyph unicode="&#xe1;" horiz-adv-x="1097" d="M43 311q0 164 88 232.5t270 81.5l220 16v53q0 111 -121 111l-383 -17l-8 199q258 59 426 60q360 -1 360 -353v-415q4 -49 15.5 -70t52.5 -27l-9 -207q-104 0 -166.5 14.5t-125.5 57.5q-147 -72 -302 -72q-317 0 -317 336zM180 1401l527 188l90 -260l-535 -160zM319 319 q0 -119 101 -118q31 0 81 8t85 15l35 7v220l-187 -17q-115 -10 -115 -115z" />
<glyph unicode="&#xe2;" horiz-adv-x="1097" d="M43 311q0 164 88 232.5t270 81.5l220 16v53q0 111 -121 111l-383 -17l-8 199q258 59 426 60q360 -1 360 -353v-415q4 -49 15.5 -70t52.5 -27l-9 -207q-104 0 -166.5 14.5t-125.5 57.5q-147 -72 -302 -72q-317 0 -317 336zM119 1188l268 352h221l271 -352h-293l-86 125 l-88 -125h-293zM319 319q0 -119 101 -118q31 0 81 8t85 15l35 7v220l-187 -17q-115 -10 -115 -115z" />
<glyph unicode="&#xe3;" horiz-adv-x="1097" d="M43 311q0 164 87 233.5t269 82.5l222 14v51q0 41 -29 66.5t-74 25.5l-397 -16l-8 233q272 45 422 46q180 0 270 -81.5t90 -271.5v-379q0 -59 12.5 -78.5t53.5 -27.5l-9 -234q-123 0 -178 15.5t-112 54.5q-172 -70 -314 -70q-150 0 -227.5 89.5t-77.5 246.5zM106 1411 q12 14 34 35.5t79 58.5t107 37q72 0 176 -44t125 -44q25 0 66.5 20.5t71.5 39.5l30 20l59 -207q-12 -14 -33.5 -35.5t-79 -57.5t-106.5 -36q-57 0 -167 45t-138 45q-25 0 -66 -20.5t-69 -40.5l-29 -21zM319 319q0 -109 84 -108q37 0 91.5 7t90.5 15l36 9v190l-187 -8 q-115 -6 -115 -105z" />
<glyph unicode="&#xe4;" horiz-adv-x="1097" d="M43 311q0 164 87 233.5t269 82.5l222 14v51q0 41 -29 66.5t-74 25.5l-397 -16l-8 233q272 45 422 46q180 0 270 -81.5t90 -271.5v-379q0 -59 12.5 -78.5t53.5 -27.5l-9 -234q-123 0 -178 15.5t-112 54.5q-172 -70 -314 -70q-150 0 -227.5 89.5t-77.5 246.5zM156 1241v270 h262v-270h-262zM319 319q0 -109 84 -108q37 0 91.5 7t90.5 15l36 9v190l-187 -8q-115 -6 -115 -105zM598 1241v270h262v-270h-262z" />
<glyph unicode="&#xe5;" horiz-adv-x="1097" d="M43 311q0 164 88 232.5t270 81.5l220 16v53q0 111 -121 111l-383 -17l-8 199q258 59 426 60q360 -1 360 -353v-415q4 -49 15.5 -70t52.5 -27l-9 -207q-104 0 -166.5 14.5t-125.5 57.5q-147 -72 -302 -72q-317 0 -317 336zM287 1307q0 100 68.5 169.5t170.5 69.5 q100 0 170 -69.5t70 -169.5q0 -102 -69.5 -171t-170.5 -69q-102 0 -170.5 69t-68.5 171zM319 319q0 -119 101 -118q31 0 81 8t85 15l35 7v220l-187 -17q-115 -10 -115 -115zM465 1307q0 -29 17.5 -46.5t45.5 -17.5q27 0 44.5 18.5t17.5 45t-17.5 44t-44 17.5t-45 -17 t-18.5 -44z" />
<glyph unicode="&#xe6;" horiz-adv-x="1695" d="M106 311q0 164 89.5 234.5t267.5 81.5l221 14v51q0 41 -28.5 66.5t-73.5 25.5q-68 0 -167.5 -5t-164.5 -11l-66 -6l-8 239q272 45 422 46q176 0 264 -76q106 76 273 76q446 0 446 -461l-20 -193h-603q2 -88 49 -127t158 -39q74 0 169.5 5.5t152.5 9.5l57 4l4 -213 q-236 -57 -426 -58q-209 0 -313 99l-47 -23q-172 -76 -350 -76q-150 0 -228 89.5t-78 246.5zM383 319q0 -108 84 -108q37 0 91 7t90 15l36 9q0 33 -1 96t-1 94l-184 -8q-115 -6 -115 -105zM958 604h353q0 109 -40 154t-136 45q-98 0 -137.5 -47.5t-39.5 -151.5z" />
<glyph unicode="&#xe7;" horiz-adv-x="892" d="M72 522q0 272 102 398.5t330 126.5q53 0 135 -11.5t137 -21.5l55 -10l-8 -236q-162 16 -239 16q-143 0 -188.5 -55t-45.5 -207q0 -168 46 -226t190 -58l237 16l8 -236q-158 -31 -274 -41v-53q131 -2 191.5 -38.5t60.5 -145.5q0 -117 -59.5 -175.5t-167.5 -58.5 q-39 0 -87.5 5.5t-75.5 11.5l-28 6l8 160q63 -2 99 -2q78 0 77 53q0 45 -77 45h-49v192q-201 12 -289 141.5t-88 403.5z" />
<glyph unicode="&#xe8;" horiz-adv-x="1017" d="M68 498q0 549 452 549q446 0 447 -461l-21 -193h-602q2 -88 49 -127t158 -39q74 0 169 5.5t152 9.5l58 4l4 -213q-236 -57 -426 -58q-231 0 -335.5 123t-104.5 400zM166 1303l84 243l526 -188l-76 -215zM342 604h354q0 109 -40 154t-136 45t-136 -47.5t-42 -151.5z" />
<glyph unicode="&#xe9;" horiz-adv-x="1017" d="M68 498q0 549 452 549q446 0 447 -461l-21 -193h-602q2 -88 49 -127t158 -39q74 0 169 5.5t152 9.5l58 4l4 -213q-236 -57 -426 -58q-231 0 -335.5 123t-104.5 400zM229 1401l527 188l90 -260l-535 -160zM342 604h354q0 109 -40 154t-136 45t-136 -47.5t-42 -151.5z" />
<glyph unicode="&#xea;" horiz-adv-x="1017" d="M68 498q0 549 452 549q446 0 447 -461l-21 -193h-602q2 -88 49 -127t158 -39q74 0 169 5.5t152 9.5l58 4l4 -213q-236 -57 -426 -58q-231 0 -335.5 123t-104.5 400zM160 1188l268 352h221l271 -352h-293l-86 125l-88 -125h-293zM342 604h354q0 109 -40 154t-136 45 t-136 -47.5t-42 -151.5z" />
<glyph unicode="&#xeb;" horiz-adv-x="1017" d="M68 498q0 549 452 549q446 0 447 -461l-21 -193h-602q2 -88 49 -127t158 -39q74 0 169 5.5t152 9.5l58 4l4 -213q-236 -57 -426 -58q-231 0 -335.5 123t-104.5 400zM168 1241v270h262v-270h-262zM342 604h354q0 109 -40 154t-136 45t-136 -47.5t-42 -151.5zM610 1241v270 h262v-270h-262z" />
<glyph unicode="&#xec;" horiz-adv-x="534" d="M-57 1343l84 244l526 -188l-76 -215zM137 0v1022h275v-1022h-275z" />
<glyph unicode="&#xed;" horiz-adv-x="534" d="M-2 1401l526 188l90 -260l-534 -160zM137 0v1022h275v-1022h-275z" />
<glyph unicode="&#xee;" horiz-adv-x="548" d="M-117 1188l269 352h221l270 -352h-293l-86 125l-88 -125h-293zM137 0v1022h275v-1022h-275z" />
<glyph unicode="&#xef;" horiz-adv-x="534" d="M-88 1241v270h262v-270h-262zM137 0v1022h275v-1022h-275zM354 1241v270h262v-270h-262z" />
<glyph unicode="&#xf0;" d="M45 479q0 193 123 305.5t324 112.5q63 0 128.5 -12.5t99.5 -23.5l34 -11q-10 106 -61.5 168.5t-170.5 103.5l-211 -166l-110 156l84 66l-150 24l37 232q213 -16 367 -58l196 154l111 -156l-98 -78q301 -164 301 -585q0 -375 -123 -552t-400 -177q-236 0 -358.5 125.5 t-122.5 371.5zM340 479q0 -244 186 -243q227 0 228 374q-99 47 -246 47q-76 0 -122 -53t-46 -125z" />
<glyph unicode="&#xf1;" horiz-adv-x="1175" d="M158 0v1022h274v-45q158 70 254 70q205 0 283 -124t78 -388v-535h-275v535q0 131 -28.5 193.5t-114.5 62.5q-31 0 -80 -8.5t-83 -17.5l-34 -9v-756h-274zM215 1411q12 14 33.5 35.5t79 58.5t106.5 37q72 0 176.5 -44t124.5 -44q25 0 67 20.5t71 39.5l30 20l60 -207 q-12 -14 -34 -35.5t-79 -57.5t-107 -36q-57 0 -166.5 45t-138.5 45q-25 0 -65.5 -20.5t-69.5 -40.5l-29 -21z" />
<glyph unicode="&#xf2;" d="M72 512q0 254 108.5 394.5t362.5 140.5t362.5 -140.5t108.5 -394.5t-108.5 -395.5t-362.5 -141.5t-362.5 141.5t-108.5 395.5zM244 1343l84 244l526 -188l-76 -215zM350 512q0 -150 42 -219.5t150.5 -69.5t150.5 69.5t42 219.5t-42 218.5t-150.5 68.5t-150.5 -68.5 t-42 -218.5z" />
<glyph unicode="&#xf3;" d="M72 512q0 254 108.5 394.5t362.5 140.5t362.5 -140.5t108.5 -394.5t-108.5 -395.5t-362.5 -141.5t-362.5 141.5t-108.5 395.5zM195 1401l526 188l90 -260l-535 -160zM350 512q0 -150 42 -219.5t150.5 -69.5t150.5 69.5t42 219.5t-42 218.5t-150.5 68.5t-150.5 -68.5 t-42 -218.5z" />
<glyph unicode="&#xf4;" d="M72 512q0 254 108.5 394.5t362.5 140.5t362.5 -140.5t108.5 -394.5t-108.5 -395.5t-362.5 -141.5t-362.5 141.5t-108.5 395.5zM150 1188l268 352h221l270 -352h-293l-86 125l-88 -125h-292zM350 512q0 -150 42 -219.5t150.5 -69.5t150.5 69.5t42 219.5t-42 218.5 t-150.5 68.5t-150.5 -68.5t-42 -218.5z" />
<glyph unicode="&#xf5;" d="M72 512q0 254 108.5 394.5t362.5 140.5t362.5 -140.5t108.5 -394.5t-108.5 -395.5t-362.5 -141.5t-362.5 141.5t-108.5 395.5zM158 1411q12 14 33.5 35.5t79 58.5t106.5 37q72 0 176 -44t125 -44q25 0 66.5 20.5t71.5 39.5l30 20l59 -207q-12 -14 -33.5 -35.5t-79 -57.5 t-106.5 -36q-57 0 -166.5 45t-138.5 45q-25 0 -66 -20.5t-69 -40.5l-29 -21zM350 512q0 -150 42 -219.5t150.5 -69.5t150.5 69.5t42 219.5t-42 218.5t-150.5 68.5t-150.5 -68.5t-42 -218.5z" />
<glyph unicode="&#xf6;" d="M72 512q0 254 108.5 394.5t362.5 140.5t362.5 -140.5t108.5 -394.5t-108.5 -395.5t-362.5 -141.5t-362.5 141.5t-108.5 395.5zM188 1241v270h263v-270h-263zM350 512q0 -150 42 -219.5t150.5 -69.5t150.5 69.5t42 219.5t-42 218.5t-150.5 68.5t-150.5 -68.5t-42 -218.5z M631 1241v270h262v-270h-262z" />
<glyph unicode="&#xf7;" d="M20 469v250h1037v-250h-1037zM412 94v271h270v-271h-270zM412 823v271h270v-271h-270z" />
<glyph unicode="&#xf8;" d="M72 512q0 254 108.5 394.5t362.5 140.5q57 0 114 -11l82 207l166 -61l-84 -203q193 -121 193 -467q0 -254 -108.5 -395.5t-362.5 -141.5q-71 0 -129 13l-84 -209l-164 61l86 209q-180 123 -180 463zM350 512q0 -125 25 -188l188 473q-2 0 -10 1t-10 1q-109 0 -151 -68.5 t-42 -218.5zM506 225q12 -2 37 -2q109 0 150.5 69.5t41.5 219.5q0 135 -33 199z" />
<glyph unicode="&#xf9;" horiz-adv-x="1148" d="M123 487v535h274v-535q0 -156 23.5 -210t120.5 -54q31 0 80 9.5t82 17.5l34 8v764h275v-1022h-275v43q-160 -68 -254 -68q-215 0 -287.5 117t-72.5 395zM176 1327l98 258l525 -188l-97 -250z" />
<glyph unicode="&#xfa;" horiz-adv-x="1148" d="M123 487v535h274v-535q0 -156 23.5 -210t120.5 -54q31 0 80 9.5t82 17.5l34 8v764h275v-1022h-275v43q-160 -68 -254 -68q-215 0 -287.5 117t-72.5 395zM225 1401l527 188l90 -260l-535 -160z" />
<glyph unicode="&#xfb;" horiz-adv-x="1148" d="M123 487v535h274v-535q0 -156 23.5 -210t120.5 -54q31 0 80 9.5t82 17.5l34 8v764h275v-1022h-275v43q-160 -68 -254 -68q-215 0 -287.5 117t-72.5 395zM139 1188l269 352h221l270 -352h-293l-86 125l-88 -125h-293z" />
<glyph unicode="&#xfc;" horiz-adv-x="1148" d="M123 487v535h274v-535q0 -156 23.5 -210t120.5 -54q31 0 80 9.5t82 17.5l34 8v764h275v-1022h-275v43q-160 -68 -254 -68q-215 0 -287.5 117t-72.5 395zM221 1241v270h262v-270h-262zM664 1241v270h262v-270h-262z" />
<glyph unicode="&#xfd;" horiz-adv-x="983" d="M-2 1022h270l187 -754h47l186 754h270l-360 -1452h-268l104 430h-184zM207 1401l526 188l90 -260l-534 -160z" />
<glyph unicode="&#xfe;" horiz-adv-x="1101" d="M150 -430v1864h274v-435q131 48 221 48q215 0 314.5 -119t99.5 -406q0 -319 -115 -433t-395 -114q-16 0 -61.5 3.5t-63.5 3.5v-412h-274zM424 233q94 -10 125 -10q137 0 184 64.5t47 234.5q0 147 -44 209t-128 62l-184 -17v-543z" />
<glyph unicode="&#xff;" horiz-adv-x="993" d="M16 1022h271l186 -754h47l187 754h270l-361 -1452h-268l105 430h-185zM158 1241v270h262v-270h-262zM600 1241v270h262v-270h-262z" />
<glyph unicode="&#x152;" horiz-adv-x="1933" d="M123 707q0 401 119.5 566t412.5 165q88 0 240 -25h897v-270h-618v-293h495v-268h-495v-312h618v-270h-893q-156 -25 -244 -25q-309 0 -420.5 171t-111.5 561zM414 707q0 -268 56.5 -360.5t234.5 -92.5q51 0 190 12v881q-143 12 -199 12q-113 0 -171 -36t-84.5 -133 t-26.5 -283z" />
<glyph unicode="&#x153;" horiz-adv-x="1794" d="M119 512q0 254 108.5 394.5t362.5 140.5q215 0 332 -111q114 111 313 111q446 0 446 -461l-20 -193h-602q2 -88 49 -127t158 -39q74 0 169 5.5t152 9.5l58 4l4 -213q-236 -57 -426 -58q-209 0 -314 99q-115 -98 -319 -99q-254 0 -362.5 141.5t-108.5 395.5zM397 512 q0 -150 42 -219.5t150.5 -69.5t150.5 69.5t42 219.5t-42 218.5t-150.5 68.5t-150.5 -68.5t-42 -218.5zM1057 604h354q0 109 -40 154t-136 45t-137 -48.5t-41 -150.5z" />
<glyph unicode="&#x178;" horiz-adv-x="1169" d="M20 1413h314l252 -493l250 493h313l-420 -811v-602h-283v604zM236 1626v270h262v-270h-262zM690 1626v270h262v-270h-262z" />
<glyph unicode="&#x2c6;" horiz-adv-x="548" d="M-84 1188l268 352h222l270 -352h-293l-86 125l-88 -125h-293z" />
<glyph unicode="&#x2dc;" horiz-adv-x="548" d="M-72 1411q12 14 34 35.5t79 58.5t106 37q72 0 176.5 -44t125.5 -44q25 0 66.5 20.5t71.5 39.5l29 20l60 -207q-12 -14 -33.5 -35.5t-79 -57.5t-106.5 -36q-57 0 -167 45t-138 45q-25 0 -66 -20.5t-70 -40.5l-28 -21z" />
<glyph unicode="&#x2000;" horiz-adv-x="999" />
<glyph unicode="&#x2001;" horiz-adv-x="1999" />
<glyph unicode="&#x2002;" horiz-adv-x="999" />
<glyph unicode="&#x2003;" horiz-adv-x="1999" />
<glyph unicode="&#x2004;" horiz-adv-x="666" />
<glyph unicode="&#x2005;" horiz-adv-x="499" />
<glyph unicode="&#x2006;" horiz-adv-x="333" />
<glyph unicode="&#x2007;" horiz-adv-x="333" />
<glyph unicode="&#x2008;" horiz-adv-x="249" />
<glyph unicode="&#x2009;" horiz-adv-x="399" />
<glyph unicode="&#x200a;" horiz-adv-x="111" />
<glyph unicode="&#x2010;" horiz-adv-x="901" d="M143 440v271h615v-271h-615z" />
<glyph unicode="&#x2011;" horiz-adv-x="901" d="M143 440v271h615v-271h-615z" />
<glyph unicode="&#x2012;" horiz-adv-x="901" d="M143 440v271h615v-271h-615z" />
<glyph unicode="&#x2013;" horiz-adv-x="1024" d="M0 436v250h1024v-250h-1024z" />
<glyph unicode="&#x2014;" horiz-adv-x="2048" d="M0 436v250h2048v-250h-2048z" />
<glyph unicode="&#x2018;" horiz-adv-x="348" d="M-45 983l119 506h264l-102 -506h-281z" />
<glyph unicode="&#x2019;" horiz-adv-x="348" d="M8 1079l103 506h278l-117 -506h-264z" />
<glyph unicode="&#x201a;" horiz-adv-x="458" d="M-6 -266l119 506h264l-103 -506h-280z" />
<glyph unicode="&#x201c;" horiz-adv-x="935" d="M115 983l118 506h265l-103 -506h-280zM471 983l119 506h264l-102 -506h-281z" />
<glyph unicode="&#x201d;" d="M184 973l103 506h278l-119 -506h-262zM541 973l102 506h281l-119 -506h-264z" />
<glyph unicode="&#x201e;" horiz-adv-x="952" d="M20 -266l103 506h278l-118 -506h-263zM377 -266l102 506h281l-119 -506h-264z" />
<glyph unicode="&#x2022;" d="M297 205v573h491v-573h-491z" />
<glyph unicode="&#x2026;" horiz-adv-x="1523" d="M111 0v340h295v-340h-295zM633 0v340h295v-340h-295zM1155 0v340h295v-340h-295z" />
<glyph unicode="&#x202f;" horiz-adv-x="399" />
<glyph unicode="&#x2039;" horiz-adv-x="825" d="M184 397v197l457 336v-277l-223 -153l223 -176v-277z" />
<glyph unicode="&#x203a;" horiz-adv-x="825" d="M184 68v276l224 176l-224 154v276l457 -336v-196z" />
<glyph unicode="&#x205f;" horiz-adv-x="499" />
<glyph unicode="&#x20ac;" horiz-adv-x="1214" d="M139 389v213h109v131h-109v213h123q31 238 144.5 334t353.5 96q78 0 169 -10t144 -19l53 -10l-8 -247q-207 8 -317 8q-115 0 -168 -31t-76 -123h428v-211h-446v-131h446v-213h-426q23 -80 78 -107.5t172 -27.5l309 10l6 -254q-203 -35 -364 -35q-246 0 -356.5 96.5 t-141.5 317.5h-123z" />
<glyph unicode="&#x2122;" d="M14 1157v162h410v-162h-84v-477h-180v477h-146zM475 678v641h211l84 -324l92 324h209v-641h-168v356l-69 -313h-113l-78 313v-356h-168z" />
<glyph unicode="&#xe000;" horiz-adv-x="1020" d="M0 1020h1020v-1020h-1020v1020z" />
<glyph unicode="&#xfb01;" horiz-adv-x="1250" d="M839 0v1022h275v-1022h-275zM839 1155v281h275v-281h-275zM35 774v248h110v47q0 219 65.5 302t233.5 83q31 0 89.5 -6t101.5 -13l43 -8l-4 -223q-90 4 -156 4q-57 0 -77.5 -31.5t-20.5 -109.5v-45h248v-248h-248v-774h-275v774h-110z" />
<glyph unicode="&#xfb02;" horiz-adv-x="1250" d="M839 0v1434h275v-1434h-275zM35 774v248h110v47q0 219 65.5 302t233.5 83q31 0 89.5 -6t101.5 -13l43 -8l-4 -223q-90 4 -156 4q-57 0 -77.5 -31.5t-20.5 -109.5v-45h248v-248h-248v-774h-275v774h-110z" />
<glyph unicode="&#xfb03;" horiz-adv-x="1952" d="M1541 0v1022h275v-1022h-275zM1541 1155v281h275v-281h-275zM737 774v248h110v47q0 219 65.5 302t233.5 83q31 0 89.5 -6t101.5 -13l43 -8l-4 -223q-90 4 -156 4q-57 0 -77.5 -31.5t-20.5 -109.5v-45h248v-248h-248v-774h-275v774h-110zM35 774v248h110v47 q0 219 65.5 302t233.5 83q31 0 89.5 -6t101.5 -13l43 -8l-4 -223q-90 4 -156 4q-57 0 -77.5 -31.5t-20.5 -109.5v-45h248v-248h-248v-774h-275v774h-110z" />
<glyph unicode="&#xfb04;" horiz-adv-x="1952" d="M1541 0v1434h275v-1434h-275zM737 774v248h110v47q0 219 65.5 302t233.5 83q31 0 89.5 -6t101.5 -13l43 -8l-4 -223q-90 4 -156 4q-57 0 -77.5 -31.5t-20.5 -109.5v-45h248v-248h-248v-774h-275v774h-110zM35 774v248h110v47q0 219 65.5 302t233.5 83q31 0 89.5 -6 t101.5 -13l43 -8l-4 -223q-90 4 -156 4q-57 0 -77.5 -31.5t-20.5 -109.5v-45h248v-248h-248v-774h-275v774h-110z" />
<glyph horiz-adv-x="481" />
</font>
</defs>
</svg>
