<?xml version="1.0" standalone="no"?>
<!DOCTYPE svg PUBLIC "-//W3C//DTD SVG 1.1//EN" "http://www.w3.org/Graphics/SVG/1.1/DTD/svg11.dtd" >
<svg xmlns="http://www.w3.org/2000/svg">
<metadata>
This is a custom SVG webfont generated by Font Squirrel.
Copyright   : Copyright c 20082010 by Accademia di Belle Arti di Urbino and others All rights reserved
Designer    : Accademia di Belle Arti di Urbino and others
Foundry     : Accademia di Belle Arti di Urbino and others
Foundry URL : wwwcampivisivinet
</metadata>
<defs>
<font id="TitilliumText25L800wt" horiz-adv-x="1085" >
<font-face units-per-em="2048" ascent="1536" descent="-512" />
<missing-glyph horiz-adv-x="481" />
<glyph unicode=" "  horiz-adv-x="481" />
<glyph unicode="&#x09;" horiz-adv-x="481" />
<glyph unicode="&#xa0;" horiz-adv-x="481" />
<glyph unicode="!" d="M428 1434h256l-8 -920h-240zM430 0v305h252v-305h-252z" />
<glyph unicode="&#x22;" horiz-adv-x="696" d="M74 1417h227l-8 -491h-215zM408 1417h225l-8 -491h-213z" />
<glyph unicode="#" d="M6 348v197h207v266h-207v197h207v348h205v-348h248v348h204v-348h207v-197h-207v-266h207v-197h-207v-348h-204v348h-248v-348h-205v348h-207zM418 545h248v266h-248v-266z" />
<glyph unicode="$" d="M78 1026q0 199 128 300t357 101h21l26 207h138l-29 -217l264 -41l-18 -213q-147 16 -275 27l-49 -385q213 -63 293 -145t80 -257q0 -213 -128 -318t-349 -108l-31 -239q-137 6 -137 14l28 234q-63 6 -136 17t-114 20l-41 8l25 213q160 -23 297 -31l51 397 q-221 59 -311 148.5t-90 267.5zM313 1030q0 -72 41 -109.5t154 -74.5l45 350q-240 -4 -240 -166zM565 209q109 6 159 50t50 138q0 66 -36 104t-126 70z" />
<glyph unicode="%" d="M14 1145q0 291 248 291t248 -293q0 -139 -61.5 -217t-186.5 -78q-248 0 -248 297zM115 98l753 1327l121 -79l-751 -1328zM188 1145q0 -84 15.5 -119t58.5 -35t58.5 35t15.5 117t-15.5 115.5t-58.5 33.5t-58.5 -33.5t-15.5 -113.5zM584 299q-1 293 247 293q250 0 250 -293 q0 -295 -250 -295q-248 0 -247 295zM760 299q0 -82 14 -117t57 -35t58.5 35t15.5 117t-14 114.5t-60 32.5q-43 0 -57 -32.5t-14 -114.5z" />
<glyph unicode="&#x26;" horiz-adv-x="1433" d="M76 410q0 274 295 417q-63 82 -84 141.5t-21 157.5q0 154 106 241t290 87q195 0 296 -89t101 -257q0 -137 -63.5 -225t-221.5 -189l205 -207q41 150 51 250l227 -4q-31 -217 -96 -393l240 -225l-141 -158l-222 199q-113 -104 -217 -150.5t-260 -46.5q-229 0 -357 118 t-128 333zM317 412q0 -109 67.5 -171.5t184.5 -62.5q92 0 157 27.5t136 95.5l-348 365q-197 -92 -197 -254zM502 1094q0 -117 90 -213l39 -39q106 63 148 113.5t42 127.5q0 152 -159.5 152t-159.5 -141z" />
<glyph unicode="'" horiz-adv-x="204" d="M-20 1417h227l-10 -495h-213z" />
<glyph unicode="(" horiz-adv-x="532" d="M31 616.5q0 182.5 49 411.5t99 369l50 139h254q-23 -59 -54.5 -158.5t-85.5 -344.5t-54 -417q0 -170 48 -388t97 -351l49 -133h-254q-23 51 -55.5 139t-87.5 319.5t-55 414z" />
<glyph unicode=")" horiz-adv-x="532" d="M31 -256q23 57 54.5 152.5t85.5 333t54 407.5q0 172 -48 396t-97 364l-49 139h254q23 -55 55.5 -147.5t87.5 -331t55 -420.5t-49 -405.5t-99 -355.5l-50 -132h-254z" />
<glyph unicode="*" d="M227 938l217 160l-211 153l84 115l207 -147l84 245l135 -45l-77 -254h256v-135h-258l79 -250l-133 -39l-84 250l-213 -162z" />
<glyph unicode="+" horiz-adv-x="1036" d="M6 473v213h406v404h213v-404h409v-213h-409v-407h-213v407h-406z" />
<glyph unicode="," horiz-adv-x="348" d="M10 -252l103 512h252l-121 -512h-234z" />
<glyph unicode="-" horiz-adv-x="901" d="M139 461v229h623v-229h-623z" />
<glyph unicode="." horiz-adv-x="507" d="M115 0v305h252v-305h-252z" />
<glyph unicode="/" d="M137 37l576 1429l223 -77l-576 -1428z" />
<glyph unicode="0" d="M25 664q0 381 130 546.5t386 165.5q258 0 387 -166t129 -546q0 -371 -129 -529t-387 -158q-256 0 -386 157t-130 530zM283 664q0 -262 59 -359.5t201 -97.5q139 0 197.5 96t58.5 361q0 272 -57.5 376.5t-199 104.5t-200.5 -104.5t-59 -376.5z" />
<glyph unicode="1" d="M82 1061l438 291h225v-1352h-241v1071l-309 -203z" />
<glyph unicode="2" d="M109 0v221l317 320q111 111 156 162t85 122.5t40 139.5q0 92 -58.5 132t-187.5 40q-63 0 -145.5 -9.5t-132.5 -17.5l-50 -8l-16 221q211 53 401 53q223 0 329.5 -94t106.5 -285q0 -150 -61.5 -258t-218.5 -266l-244 -242h551v-231h-872z" />
<glyph unicode="3" d="M96 25l25 217q225 -31 393 -31q240 0 240 184q0 172 -224 176h-274v220h272q74 0 135.5 57t61.5 127q0 168 -227 168q-74 0 -164 -8.5t-144 -15.5l-53 -7l-22 211q227 53 399 53q252 0 356.5 -88t104.5 -278q0 -78 -30 -140.5t-61.5 -91t-82.5 -63.5q104 -49 152 -113.5 t48 -200.5q0 -215 -108.5 -319.5t-345.5 -104.5q-90 0 -203 12.5t-180 23.5z" />
<glyph unicode="4" d="M49 215v197l352 940h267l-344 -906h331v416h242v-416h139v-231h-139v-231h-242v231h-606z" />
<glyph unicode="5" d="M82 41l27 215q258 -49 432 -49q100 0 160.5 60.5t60.5 162.5q0 203 -221 203q-59 0 -121 -12.5t-93 -23.5l-32 -11l-186 39l43 729h813v-232h-596l-33 -313q139 49 229 49q221 0 333 -99.5t112 -316.5q0 -223 -120 -344t-339 -121q-94 0 -211 15.5t-187 32.5z" />
<glyph unicode="6" d="M53 674q0 377 141.5 539.5t409.5 162.5q76 0 174.5 -10t158.5 -20l60 -11l-20 -221q-201 29 -373 29q-303 0 -303 -344l46 14q46 14 117 30.5t122 16.5q461 0 461 -432q0 -221 -128 -336t-360 -115q-506 0 -506 697zM299 590q4 -387 260 -387q240 0 240 225 q-1 211 -234 211q-55 -2 -121.5 -14.5t-105.5 -23.5z" />
<glyph unicode="7" d="M104 1122v232h857v-285l-500 -1102l-223 64l475 1042v49h-609z" />
<glyph unicode="8" d="M39 344q0 94 25.5 160.5t62.5 106.5t104 89q-94 66 -132 133.5t-38 180.5q0 172 131.5 267t356.5 95q223 0 359 -95t136 -269q0 -121 -35.5 -182.5t-138.5 -129.5q102 -70 148.5 -139t46.5 -194q0 -203 -142.5 -296.5t-373.5 -93.5q-510 0 -510 367zM297 397 q0 -190 252 -190q258 0 258 194q0 127 -162 181h-190q-158 -53 -158 -185zM319 977q0 -113 136 -182h190q141 70 141 182q0 168 -233.5 168t-233.5 -168z" />
<glyph unicode="9" d="M43 924q0 215 132 333.5t355 118.5q508 0 508 -696q0 -381 -140 -542t-413 -161q-76 0 -175 9.5t-159 19.5l-61 10l23 217q201 -29 372 -28q152 0 229 90t77 254l-48 -13q-47 -13 -118.5 -27.5t-122.5 -14.5q-221 0 -340 107.5t-119 322.5zM293 924q0 -211 229 -211 q53 0 121 12t109 26l41 13q-2 174 -66.5 279.5t-196.5 105.5q-111 0 -174 -58.5t-63 -166.5z" />
<glyph unicode=":" horiz-adv-x="434" d="M88 0v305h254v-305h-254zM88 614v306h254v-306h-254z" />
<glyph unicode=";" horiz-adv-x="464" d="M23 -236l116 529h254l-153 -529h-217zM123 614v306h252v-306h-252z" />
<glyph unicode="&#x3c;" d="M129 508v246l711 391v-246l-482 -264l482 -275v-245q-100 51 -358.5 196.5t-352.5 196.5z" />
<glyph unicode="=" d="M51 262v213h961v-213h-961zM51 686v213h961v-213h-961z" />
<glyph unicode="&#x3e;" d="M129 115v245l481 275l-481 264v246l711 -391v-246q-94 -51 -352.5 -196.5t-358.5 -196.5z" />
<glyph unicode="?" horiz-adv-x="790" d="M12 1403q238 57 348 57q238 0 344.5 -88t106.5 -301q0 -100 -38 -182t-92 -132t-109.5 -91t-93.5 -82t-38 -84v-78h-252v84q0 76 38 137.5t92.5 103t107.5 81.5t91 94.5t38 119.5q0 94 -41 133t-164 39q-45 0 -122.5 -10t-132.5 -20l-54 -10zM188 0v305h252v-305h-252z " />
<glyph unicode="@" horiz-adv-x="2017" d="M90 535q0 481 249 717.5t693 236.5q895 0 895 -864v-35q0 -342 -94 -476t-289 -134q-184 0 -256 96q-188 -94 -325 -94q-182 0 -279.5 115.5t-97.5 398.5q0 272 87 409t312 137q31 0 83 -12t88 -23l36 -12v29h233v-410q0 -188 11.5 -275t34 -110.5t73.5 -23.5 q80 0 114 74.5t34 310.5v37q0 342 -155 488.5t-505 146.5q-707 0 -706 -727q0 -399 161.5 -565.5t544.5 -166.5l293 19l10 -225q-205 -20 -303 -21q-236 0 -404.5 46t-292.5 154.5t-184.5 297t-60.5 461.5zM823 496q0 -160 40 -222.5t116 -62.5q96 0 229 49q-16 90 -16 256 v279q-102 27 -158 26q-129 0 -170 -67.5t-41 -257.5z" />
<glyph unicode="A" horiz-adv-x="1239" d="M47 0l338 1417h473l334 -1417h-242l-78 279h-514l-69 -279h-242zM410 510h415l-157 686h-97z" />
<glyph unicode="B" horiz-adv-x="1247" d="M158 0v1417h532q430 0 430 -356q0 -137 -38 -211t-126 -123q100 -41 147.5 -114.5t47.5 -213.5q0 -399 -446 -399h-547zM395 221h297q106 0 158.5 45t52.5 152q0 186 -215 186h-293v-383zM395 821h289q188 0 188 199q0 92 -47 134t-147 42h-283v-375z" />
<glyph unicode="C" horiz-adv-x="1095" d="M90 707q0 395 116 564t410 169q80 0 180.5 -13.5t161.5 -27.5l62 -15l-8 -210q-232 30 -355 30h-8q-184 0 -247.5 -104.5t-63.5 -392.5q0 -283 62.5 -388.5t256.5 -105.5q49 0 138.5 8t152.5 17l64 8l6 -217q-240 -51 -402 -52q-307 0 -416.5 172.5t-109.5 557.5z" />
<glyph unicode="D" horiz-adv-x="1292" d="M158 0v1417h477q170 0 282.5 -43t175 -134t87 -211t24.5 -296q0 -184 -23.5 -309t-84 -226.5t-174 -149.5t-287.5 -48h-477zM395 229h240q102 0 167.5 36t98.5 108.5t44 154.5t11 205q0 242 -62.5 348.5t-258.5 106.5h-240v-959z" />
<glyph unicode="E" horiz-adv-x="1140" d="M158 0v1417h884v-229h-647v-371h525v-225h-525v-363h647v-229h-884z" />
<glyph unicode="F" horiz-adv-x="1112" d="M158 0v1417h884v-229h-647v-457h525v-227h-525v-504h-237z" />
<glyph unicode="G" horiz-adv-x="1226" d="M90 711q0 383 125 556t430 173q96 0 215 -14.5t191 -28.5l71 -15l-6 -208q-243 32 -425 32h-11q-201 0 -271.5 -105.5t-70.5 -390t66.5 -392t269.5 -107.5q27 0 58.5 1t57 3t47 5t34.5 4l14 1v301h-162v215h399v-716q-291 -47 -469 -48q-315 0 -439 180.5t-124 553.5z " />
<glyph unicode="H" horiz-adv-x="1380" d="M158 0v1417h239v-581h586v581h242v-1417h-242v604h-586v-604h-239z" />
<glyph unicode="I" horiz-adv-x="548" d="M154 0v1417h241v-1417h-241z" />
<glyph unicode="J" horiz-adv-x="638" d="M63 80q100 0 140.5 33.5t40.5 134.5v1169h239q0 -217 1 -591.5t1 -594.5q0 -225 -94 -300.5t-328 -75.5v225z" />
<glyph unicode="K" horiz-adv-x="1216" d="M158 0v1417h239v-622l201 16l274 606h277l-336 -706l350 -711h-280l-281 580l-205 -17v-563h-239z" />
<glyph unicode="L" horiz-adv-x="1015" d="M158 0v1417h239v-1186h549v-231h-788z" />
<glyph unicode="M" horiz-adv-x="1738" d="M158 0v1417h391l321 -1077l322 1077h389v-1417h-242v1118h-28l-318 -1061h-245l-320 1061h-31v-1118h-239z" />
<glyph unicode="N" horiz-adv-x="1429" d="M158 0v1417h389l450 -1118h35v1118h242v-1417h-379l-463 1118h-35v-1118h-239z" />
<glyph unicode="O" horiz-adv-x="1323" d="M90 698q0 375 128 558.5t443.5 183.5t443.5 -183.5t128 -558t-127 -548t-444.5 -173.5t-444.5 174.5t-127 546.5zM338 698q0 -262 67.5 -375.5t256 -113.5t256 112.5t67.5 377t-68.5 387t-255 122.5t-255 -122.5t-68.5 -387.5z" />
<glyph unicode="P" horiz-adv-x="1222" d="M158 0v1417h514q481 0 481 -481q0 -244 -121.5 -376t-359.5 -132h-275v-428h-239zM397 659h273q237 0 237 275q0 252 -237 252h-273v-527z" />
<glyph unicode="Q" horiz-adv-x="1323" d="M90 698q0 375 128 558.5t443.5 183.5t443.5 -183.5t128 -558.5q0 -246 -50 -400.5t-167 -231.5l168 -275l-221 -102l-185 297q-47 -8 -116 -9q-317 0 -444.5 174.5t-127.5 546.5zM338 698q0 -262 67.5 -375.5t256 -113.5t256 112.5t67.5 377t-68.5 387t-255 122.5 t-255 -122.5t-68.5 -387.5z" />
<glyph unicode="R" horiz-adv-x="1263" d="M158 0v1417h534q246 0 362.5 -108.5t116.5 -347.5q0 -297 -223 -408l223 -553h-264l-194 483h-316v-483h-239zM397 713h299h2q226 0 226 243q0 231 -232 232h-295v-475z" />
<glyph unicode="S" horiz-adv-x="1087" d="M72 1036q0 199 129 302.5t362 103.5q70 0 176.5 -12.5t176.5 -25.5l71 -13l-18 -215q-279 32 -399 32h-7q-252 0 -252 -168q0 -86 59.5 -126t247.5 -93q229 -68 314.5 -150.5t85.5 -262.5q0 -215 -130 -323t-353 -108q-70 0 -177.5 13.5t-181.5 26.5l-74 14l25 215 q260 -35 405 -35q127 0 185.5 44t58.5 146q0 82 -55 124t-215 83q-240 61 -337 152.5t-97 275.5z" />
<glyph unicode="T" horiz-adv-x="991" d="M-16 1186v231h1024v-231h-390v-1186h-241v1186h-393z" />
<glyph unicode="U" horiz-adv-x="1308" d="M135 457v960h242v-960q0 -131 70.5 -185.5t203.5 -54.5q135 0 208 55.5t73 184.5v960h242v-960q0 -250 -130.5 -362.5t-392.5 -112.5q-258 0 -387 112.5t-129 362.5z" />
<glyph unicode="V" horiz-adv-x="1241" d="M47 1417h252l272 -1188h99l272 1188h252l-342 -1417h-465z" />
<glyph unicode="W" horiz-adv-x="1898" d="M57 1417h252l230 -1171h41l233 1167h272l238 -1167h39l227 1171h252l-311 -1417h-375l-207 1061l-203 -1061h-374z" />
<glyph unicode="X" horiz-adv-x="1189" d="M41 0l397 702l-397 715h268l287 -528l285 528h268l-391 -715l391 -702h-268l-285 520l-287 -520h-268z" />
<glyph unicode="Y" horiz-adv-x="1157" d="M27 1417h268l285 -543l282 543h268l-428 -813v-604h-241v606z" />
<glyph unicode="Z" horiz-adv-x="1167" d="M123 0v246l616 905v35h-616v231h921v-246l-616 -907v-33h616v-231h-921z" />
<glyph unicode="[" horiz-adv-x="614" d="M66 1534h489v-229h-248v-1328h248v-229h-487z" />
<glyph unicode="\" horiz-adv-x="1114" d="M94 1370l260 115l643 -1436l-258 -108z" />
<glyph unicode="]" horiz-adv-x="614" d="M66 -23h249v1328h-249v229h489l-2 -1786h-487v229z" />
<glyph unicode="^" d="M51 649l367 703h246l370 -703h-248l-243 471l-246 -471h-246z" />
<glyph unicode="_" horiz-adv-x="1064" d="M55 10h877v-213h-877v213z" />
<glyph unicode="`" horiz-adv-x="526" d="M-25 1362l74 207l500 -189l-68 -184z" />
<glyph unicode="a" horiz-adv-x="1077" d="M88 305q0 158 85 227.5t259 81.5l252 23v63q0 137 -141 138l-385 -19l-6 172q252 55 417 56q349 -1 349 -347v-450q4 -45 22 -66.5t64 -27.5l-9 -179q-176 0 -276 74q-160 -74 -324 -74q-307 0 -307 328zM324 311q0 -141 120 -141q41 0 101.5 10t99.5 21l39 10v260 l-225 -20q-135 -12 -135 -140z" />
<glyph unicode="b" horiz-adv-x="1114" d="M152 4v1442h233v-455q139 56 248 56q211 0 305 -120t94 -403q0 -313 -110.5 -430t-389.5 -117q-47 0 -142 7.5t-167 13.5zM385 199q106 -11 145 -11q158 0 211.5 74t53.5 262q0 166 -46.5 235.5t-146.5 69.5q-41 0 -95 -7t-88 -14l-34 -7v-602z" />
<glyph unicode="c" horiz-adv-x="892" d="M82 524q0 276 101.5 399.5t328.5 123.5q49 0 127 -9.5t131 -19.5l53 -10l-8 -203q-162 18 -240 18q-154 0 -205 -64.5t-51 -234.5q0 -190 50.5 -257.5t208.5 -67.5l239 18l6 -203q-209 -37 -317 -37q-231 0 -327.5 126t-96.5 421z" />
<glyph unicode="d" horiz-adv-x="1122" d="M82 518q0 274 103.5 401.5t322.5 127.5q96 0 229 -27v414h236v-1434h-236v49q-145 -72 -266 -72q-205 0 -297 126t-92 415zM319 516q0 -178 45.5 -247.5t143.5 -73.5q45 0 102.5 11t91.5 22l35 12v575q-2 0 -37.5 4t-86 9.5t-89.5 5.5q-106 0 -155.5 -75t-49.5 -243z" />
<glyph unicode="e" horiz-adv-x="1038" d="M82 500q0 547 444 547q436 0 437 -467l-17 -168h-629q2 -115 54.5 -168.5t175.5 -53.5q72 0 166 5.5t152 9.5l59 4l4 -182q-233 -49 -416 -50q-229 0 -329.5 125t-100.5 398zM317 594h414q0 133 -47 188.5t-158 55.5q-109 0 -159 -58.5t-50 -185.5z" />
<glyph unicode="f" horiz-adv-x="696" d="M43 811v211h117v63q0 219 63.5 300t227.5 81l223 -22l-2 -193q-98 4 -162 4q-68 0 -92.5 -36.5t-24.5 -135.5v-61h264v-211h-264v-811h-233v811h-117z" />
<glyph unicode="g" horiz-adv-x="1087" d="M80 -182q0 74 36 130t117 118q-69 46 -69 148q0 23 18.5 64t37.5 71l20 30q-147 92 -148 307q0 184 112.5 271t301.5 87q41 0 93 -6t84 -13l32 -7l311 10v-190l-156 10q51 -68 52 -162q0 -203 -100.5 -279.5t-319.5 -76.5q-49 0 -90 8q-25 -66 -25 -92q0 -47 37 -61.5 t178 -14.5q248 0 339 -65.5t91 -241.5q0 -174 -129 -256t-348 -82q-244 0 -359.5 63.5t-115.5 229.5zM311 -158q0 -66 56.5 -94.5t189.5 -28.5q238 0 238 131q0 76 -41 95.5t-170 21.5l-199 13q-74 -66 -74 -138zM328 686q0 -88 41 -132t137 -44q98 0 141 42t43 134 q0 94 -42 134t-140 40q-180 0 -180 -174z" />
<glyph unicode="h" horiz-adv-x="1150" d="M152 0v1446h233v-459q162 59 274 60q205 0 281 -120t76 -390v-537h-236v535q0 158 -32.5 225t-133.5 67q-41 0 -98 -8t-94 -17l-37 -9v-793h-233z" />
<glyph unicode="i" horiz-adv-x="526" d="M147 0v1022h234v-1022h-234zM147 1188v248h234v-248h-234z" />
<glyph unicode="j" horiz-adv-x="538" d="M-68 -272q145 88 186.5 140t41.5 173v981h233v-983q0 -201 -70.5 -298t-285.5 -208zM160 1202v248h233v-248h-233z" />
<glyph unicode="k" horiz-adv-x="1046" d="M152 0v1446h233v-819l123 16l235 379h263l-289 -479l301 -543h-264l-242 414l-127 -17v-397h-233z" />
<glyph unicode="l" horiz-adv-x="530" d="M150 0v1446h233v-1446h-233z" />
<glyph unicode="m" horiz-adv-x="1746" d="M152 0v1022h231v-55q86 47 178 63q66 14 107 14q152 -6 229 -86q227 88 356 89q203 0 280 -118t77 -394v-535h-234v442q0 231 -26.5 308t-141.5 77q-45 0 -100 -12t-88 -24.5t-35 -14.5q14 -33 14 -246v-530h-233v526q0 174 -32 237.5t-136 63.5q-41 0 -94 -12t-86 -23 l-33 -12v-780h-233z" />
<glyph unicode="n" horiz-adv-x="1153" d="M152 0v1022h233v-61q145 86 274 86q205 0 281 -120t76 -392v-535h-234v541q0 160 -34.5 227.5t-141.5 67.5q-51 0 -106.5 -12.5t-84.5 -24.5l-30 -13v-786h-233z" />
<glyph unicode="o" horiz-adv-x="1083" d="M82 516q0 260 106.5 395.5t354.5 135.5q244 0 351 -136.5t107 -394.5q0 -264 -103 -401.5t-355 -137.5t-356.5 136.5t-104.5 402.5zM319 516q0 -176 46.5 -252t177.5 -76q129 0 175 77t46 251q0 166 -50 242t-171 76q-127 0 -175.5 -74t-48.5 -244z" />
<glyph unicode="p" horiz-adv-x="1116" d="M152 -438v1460h233v-55q139 80 256 80q205 0 299 -121t94 -404q0 -309 -107.5 -427t-351.5 -118q-98 0 -190 19v-434h-233zM385 203q57 -14 174 -15q135 0 186.5 74t51.5 260q0 166 -50.5 237.5t-148.5 71.5q-41 0 -94 -13t-86 -26l-33 -14v-575z" />
<glyph unicode="q" horiz-adv-x="1097" d="M82 498q0 268 107.5 408.5t359.5 140.5q51 0 150.5 -6.5t173.5 -12.5l75 -6v-1460h-235v450q-72 -35 -185 -35q-236 0 -341 132.5t-105 388.5zM317 498q0 -309 211 -310q41 0 87.5 10.5t71.5 21.5l26 11v598q-109 5 -164 5q-123 0 -177.5 -82t-54.5 -254z" />
<glyph unicode="r" horiz-adv-x="735" d="M152 0v1022h233v-109q135 100 309 134v-250q-82 -16 -158.5 -43t-113.5 -45l-37 -19v-690h-233z" />
<glyph unicode="s" horiz-adv-x="1011" d="M102 723q0 164 110 244t277 80q66 0 163.5 -12.5t161.5 -23.5l65 -12l-5 -198q-246 33 -368 33q-92 0 -131 -24t-39 -81q0 -47 41 -66.5t172 -39.5q205 -33 282.5 -100.5t77.5 -217.5q0 -328 -407 -328q-66 0 -161 11.5t-159 22.5l-63 12l8 198q248 -33 352 -33 q109 0 153 25t44 86q0 49 -37 69.5t-160 41.5q-209 35 -293 98t-84 215z" />
<glyph unicode="t" horiz-adv-x="724" d="M39 811v211h129v297h233v-297h277v-211h-277v-418q0 -117 17.5 -155.5t89.5 -38.5l166 6l10 -201q-137 -29 -209 -29q-176 0 -241.5 82t-65.5 303v451h-129z" />
<glyph unicode="u" horiz-adv-x="1146" d="M137 487v535h234v-533q0 -178 28.5 -239.5t139.5 -61.5q41 0 96 12.5t91 23.5l36 12v786h233v-1022h-233v51q-160 -74 -270 -74q-213 0 -284 114t-71 396z" />
<glyph unicode="v" horiz-adv-x="989" d="M27 1022h243l195 -827h61l199 827h238l-263 -1022h-413z" />
<glyph unicode="w" horiz-adv-x="1540" d="M35 1022h231l152 -811h45l184 793h246l184 -793h45l152 811h231l-209 -1022h-378l-150 684l-150 -684h-374z" />
<glyph unicode="x" horiz-adv-x="952" d="M33 0l291 510l-291 512h250l192 -344l195 344h250l-293 -512l293 -510h-250l-195 342l-192 -342h-250z" />
<glyph unicode="y" horiz-adv-x="991" d="M27 1022h231l211 -795h53l211 795h232l-383 -1460h-230l113 438h-172z" />
<glyph unicode="z" horiz-adv-x="978" d="M109 0v211l479 602h-479v211h759v-211l-477 -602h477v-211h-759z" />
<glyph unicode="{" horiz-adv-x="671" d="M39 541v196q113 29 155 73t42 124q0 27 -7.5 124t-7.5 138q0 190 99.5 270t326.5 88l2 -229q-109 -8 -142.5 -38t-33.5 -107q0 -35 7 -133.5t7 -126.5q0 -123 -45 -182.5t-159 -96.5q113 -37 158.5 -102.5t45.5 -188.5q0 -31 -7 -117t-7 -120q0 -80 35 -113t141 -41 l-2 -229q-223 8 -324.5 91t-101.5 263q0 43 7.5 134t7.5 114q0 80 -43 129t-154 80z" />
<glyph unicode="|" d="M412 -401v1917h241v-1917h-241z" />
<glyph unicode="}" horiz-adv-x="671" d="M39 -41q106 8 141 41t35 113q0 35 -7 120.5t-7 116.5q0 123 46 188.5t159 102.5q-115 37 -160 96.5t-45 182.5q0 29 7 127t7 133q0 78 -34 107.5t-142 37.5l2 229q227 -8 326.5 -88t99.5 -270q0 -41 -7 -138t-7 -124q0 -80 42 -124t154 -73v-196q-111 -31 -153.5 -80 t-42.5 -129q0 -23 7 -114t7 -134q0 -180 -101.5 -263t-324.5 -91z" />
<glyph unicode="~" d="M123 686q12 12 34.5 30.5t88 49.5t127.5 31q55 0 188 -47.5t180 -47.5q35 0 86.5 21.5t84.5 42.5l34 20l17 -219q-12 -12 -32 -30.5t-81.5 -48t-118.5 -29.5q-59 0 -196.5 47t-174.5 47q-41 0 -96 -21.5t-89 -43.5l-34 -21z" />
<glyph unicode="&#xa1;" d="M428 -412l8 920h240l8 -920h-256zM430 717v305h252v-305h-252z" />
<glyph unicode="&#xa2;" horiz-adv-x="894" d="M43 510q0 422 371 448v220h196v-228l174 -20l-6 -203q-172 8 -250 8q-139 0 -192 -47t-53 -178t53 -177t199 -46l243 10l8 -203q-92 -12 -174 -22v-230h-198v221q-184 12 -277.5 118t-93.5 329z" />
<glyph unicode="&#xa3;" d="M143 0v203h160v473h-133v205h133v133q0 215 93 297t257 82q49 0 117 -7.5t111 -14.5l43 -7v-201q-164 20 -265 21q-70 0 -98.5 -41t-28.5 -142v-120h326v-205h-326v-473h275l147 33l37 -199l-166 -35z" />
<glyph unicode="&#xa4;" d="M49 184l150 148q-47 86 -47 184t47 184l-150 148l162 162l147 -150q86 45 184.5 45t184.5 -45l147 150l162 -162l-149 -148q47 -86 47 -184t-47 -184l149 -148l-162 -161l-147 149q-86 -45 -184.5 -45t-184.5 45l-147 -149zM365 516q0 -74 53 -125q51 -51 124.5 -51 t125.5 51q53 51 53 125t-53 125q-51 51 -125 51t-125 -51q-53 -51 -53 -125z" />
<glyph unicode="&#xa5;" horiz-adv-x="1105" d="M2 1352h268l285 -473l283 473h268l-313 -543h215v-197h-326l-4 -37v-67h330v-197h-330v-311h-242v311h-338v197h338v67l-6 37h-332v197h221z" />
<glyph unicode="&#xa6;" d="M412 -401v833h239v-833h-239zM412 698v838h239v-838h-239z" />
<glyph unicode="&#xa7;" d="M115 465q0 74 42 153.5t85 114.5q-90 66 -90 223q0 358 428 359q63 0 151 -10.5t145 -21.5l56 -11l-12 -191q-227 31 -326 31q-123 0 -169 -34t-46 -117q0 -61 57.5 -90t225.5 -66q182 -43 249.5 -102.5t67.5 -203t-98 -280.5q41 -35 59 -81t18 -136q0 -190 -102 -277 t-324 -87q-61 0 -155 11t-157 21l-62 11l22 190q223 -31 336 -31q219 0 219 146q0 68 -53 94t-240 70q-180 43 -253.5 107.5t-73.5 207.5zM350 506q0 -70 33 -97.5t127 -48.5q125 -33 190 -57q12 16 26.5 68.5t14.5 95.5q0 63 -38.5 92.5t-149.5 56.5q-141 31 -158 37 q-12 -18 -28.5 -64t-16.5 -83z" />
<glyph unicode="&#xa8;" horiz-adv-x="526" d="M-49 1253v242h223v-242h-223zM383 1253v242h223v-242h-223z" />
<glyph unicode="&#xa9;" d="M18 887q0 231 149.5 390t375.5 159q229 0 376.5 -161t147.5 -386q0 -231 -147.5 -388t-380.5 -157q-219 0 -370 158t-151 385zM135 889q0 -178 116 -302t290 -124q178 0 294.5 124t116.5 302t-117.5 304t-291.5 126t-291 -126t-117 -304zM287 897q0 156 61.5 231.5 t198.5 75.5q41 0 80 -3t57 -6l18 -3l-2 -186q-61 12 -153 12q-78 0 -78 -121q0 -137 78 -137l153 10v-182q-59 -16 -153 -17q-139 0 -199.5 77t-60.5 249z" />
<glyph unicode="&#xaa;" horiz-adv-x="1060" d="M283 954q0 143 153 156l209 14v47q0 66 -24.5 89.5t-81.5 23.5l-213 -14l-4 63q141 16 217 17q88 0 129 -42.5t41 -138.5v-274q12 -41 75 -47l-4 -57q-66 2 -110 45q-129 -45 -244 -45q-63 0 -103 45t-40 118zM350 950q0 -94 82 -94q41 0 94.5 8t85.5 18l33 9v174 l-199 -12q-51 -4 -73.5 -28t-22.5 -75z" />
<glyph unicode="&#xab;" horiz-adv-x="1314" d="M184 414v172l434 321v-237l-233 -166l233 -189v-237zM733 414v172l434 321v-237l-235 -166l235 -189v-237z" />
<glyph unicode="&#xac;" d="M106 512v227h869v-534h-227v307h-642z" />
<glyph unicode="&#xad;" horiz-adv-x="901" d="M139 461v229h623v-229h-623z" />
<glyph unicode="&#xae;" d="M-12 889q0 242 150.5 407.5t404.5 165.5t409.5 -164.5t155.5 -408.5q0 -240 -156.5 -408t-408.5 -168q-254 0 -404.5 166t-150.5 410zM102 889q0 -188 128 -325.5t312.5 -137.5t313.5 136t129 327q0 195 -129 329t-313 134q-188 0 -314.5 -133t-126.5 -330zM297 565v645 h244q123 0 186.5 -47t63.5 -157q0 -80 -18.5 -123t-67.5 -76l100 -242h-184l-80 219h-74v-219h-170zM465 913h78q82 0 82 82q0 84 -90 84h-70v-166z" />
<glyph unicode="&#xaf;" horiz-adv-x="526" d="M-49 1282v203h645v-203h-645z" />
<glyph unicode="&#xb0;" d="M199 1155q0 133 84 217t217 84t217 -84t84 -217t-84 -216t-217 -83t-217 83t-84 216zM336 1155q0 -74 45 -120t118.5 -46t121 46t47.5 120t-47.5 121t-121 47t-118.5 -47t-45 -121z" />
<glyph unicode="&#xb1;" d="M49 82v213h998v-213h-998zM49 627v213h389v250h213v-250h396v-213h-396v-240h-213v240h-389z" />
<glyph unicode="&#xb2;" horiz-adv-x="542" d="M35 979v162l160 139q96 82 96 133q0 45 -84 45l-160 -14l-8 176q141 20 231 20q119 0 169 -46t50 -152q0 -68 -27.5 -116t-90.5 -99l-92 -78h215v-170h-459z" />
<glyph unicode="&#xb3;" horiz-adv-x="542" d="M45 975l10 166q123 -14 197 -14.5t74 51.5q0 47 -68 47h-135v153h133q23 0 38 13.5t15 35.5q0 43 -67 43l-179 -12l-10 162q133 20 217 20q238 0 238 -180q0 -104 -68 -145q80 -33 80 -152q0 -102 -61.5 -154.5t-171.5 -52.5q-45 0 -105.5 5.5t-98.5 9.5z" />
<glyph unicode="&#xb4;" horiz-adv-x="548" d="M14 1380l500 191l80 -221l-508 -164z" />
<glyph unicode="&#xb5;" d="M127 -463v1487h233v-578q2 -150 33 -204t135 -54q41 0 97.5 12.5t92.5 23.5l36 12v786h233v-1022h-233v51q-160 -74 -271 -74q-78 0 -123 25v-465h-233z" />
<glyph unicode="&#x3bc;" d="M127 -463v1487h233v-578q2 -150 33 -204t135 -54q41 0 97.5 12.5t92.5 23.5l36 12v786h233v-1022h-233v51q-160 -74 -271 -74q-78 0 -123 25v-465h-233z" />
<glyph unicode="&#xb6;" d="M16 1036q0 174 107.5 286t277.5 112h676v-183h-98v-1251h-203v1251h-164v-1251h-200v645h-15q-170 0 -275.5 108.5t-105.5 282.5z" />
<glyph unicode="&#xb7;" horiz-adv-x="507" d="M115 451v305h252v-305h-252z" />
<glyph unicode="&#xb8;" horiz-adv-x="1705" d="M758 -457l8 140q70 -4 111 -5q82 0 81 62q0 53 -81 53h-62v209h100v-86q129 -2 186.5 -38t57.5 -138q0 -109 -56 -163t-159 -54q-39 0 -86 5t-74 10z" />
<glyph unicode="&#xb9;" horiz-adv-x="542" d="M43 1468l213 150h172v-639h-188v432l-111 -76z" />
<glyph unicode="&#xba;" horiz-adv-x="1077" d="M295 1073q-1 277 235 277q119 0 175.5 -66.5t56.5 -210.5q0 -283 -232 -282q-236 0 -235 282zM365 1073q0 -117 38.5 -167t126.5 -50t125 50t37 167t-37 164t-125 47t-126.5 -48t-38.5 -163z" />
<glyph unicode="&#xbb;" horiz-adv-x="1314" d="M147 78v237l236 189l-236 166v237l435 -321v-172zM696 78v237l234 189l-234 166v237l434 -321v-172z" />
<glyph unicode="&#xbf;" horiz-adv-x="790" d="M12 -49q0 100 38 182t92.5 132t109.5 91t93 82t38 84v78h252v-84q0 -76 -38 -137.5t-92 -103.5t-107.5 -81.5t-91.5 -94t-38 -119.5q0 -94 41 -133.5t164 -39.5q45 0 123 10.5t132 20.5l54 10l29 -229q-238 -57 -348 -57q-238 0 -344.5 88t-106.5 301zM383 717v305h252 v-305h-252z" />
<glyph unicode="&#xc0;" horiz-adv-x="1236" d="M53 0l338 1417h473l334 -1417h-242l-77 279h-514l-70 -279h-242zM299 1722l78 220l500 -189l-72 -197zM416 510h415l-157 686h-96z" />
<glyph unicode="&#xc1;" horiz-adv-x="1236" d="M53 0l338 1417h473l334 -1417h-242l-77 279h-514l-70 -279h-242zM332 1790l499 190l80 -221l-508 -164zM416 510h415l-157 686h-96z" />
<glyph unicode="&#xc2;" horiz-adv-x="1236" d="M53 0l338 1417h473l334 -1417h-242l-77 279h-514l-70 -279h-242zM260 1606l264 336h189l266 -336h-252l-106 141l-109 -141h-252zM416 510h415l-157 686h-96z" />
<glyph unicode="&#xc3;" horiz-adv-x="1239" d="M47 0l338 1417h473l334 -1417h-242l-78 279h-514l-69 -279h-242zM211 1798q12 14 33.5 35.5t78 56.5t101.5 35q66 0 190.5 -48t147 -48t63.5 21.5t71 42.5l30 22l51 -178q-12 -14 -32.5 -36t-76 -56.5t-100.5 -34.5q-55 0 -184 49t-158 49q-25 0 -66 -22.5t-69 -44.5 l-29 -21zM410 510h415l-157 686h-97z" />
<glyph unicode="&#xc4;" horiz-adv-x="1236" d="M53 0l340 1417h471l334 -1417h-242l-77 279h-514l-70 -279h-242zM340 1663v242h225v-242h-225zM416 510h415l-157 686h-96zM772 1663v242h223v-242h-223z" />
<glyph unicode="&#xc5;" horiz-adv-x="1236" d="M53 0l324 1362q-35 53 -35 129q0 115 81 179.5t204 64.5t204.5 -64.5t81.5 -179.5q0 -72 -36 -129l321 -1362h-242l-77 279h-514l-70 -279h-242zM416 510h415l-157 686h-96zM524 1491q0 -57 58 -74h90q59 16 59 74q0 37 -28.5 58.5t-75.5 21.5t-75 -21.5t-28 -58.5z" />
<glyph unicode="&#xc6;" horiz-adv-x="1839" d="M92 0l406 1417h1263v-229h-647v-352h524v-230h-524v-377h647v-229h-884v279h-461l-80 -279h-244zM475 510h402l2 678h-211z" />
<glyph unicode="&#xc7;" horiz-adv-x="1099" d="M90 707q0 395 116 564t410 169q80 0 180.5 -13.5t161.5 -27.5l62 -15l-8 -210q-240 31 -363 30q-184 0 -247.5 -104.5t-63.5 -392.5q0 -283 62.5 -388.5t256.5 -105.5q49 0 138.5 8t152.5 17l64 8l6 -217q-223 -47 -383 -52v-61q129 -2 186.5 -38t57.5 -138 q0 -109 -56.5 -163t-158.5 -54q-39 0 -86.5 5t-73.5 10l-27 5l8 140q70 -4 111 -5q82 0 82 62q0 53 -82 53h-61v189q-256 20 -350.5 192t-94.5 533z" />
<glyph unicode="&#xc8;" horiz-adv-x="1140" d="M158 0v1417h884v-229h-647v-371h525v-225h-525v-363h647v-229h-884zM305 1722l78 220l500 -189l-72 -197z" />
<glyph unicode="&#xc9;" horiz-adv-x="1171" d="M166 0v1417h885v-229h-648v-371h525v-225h-525v-363h648v-229h-885zM332 1790l499 190l80 -221l-508 -164z" />
<glyph unicode="&#xca;" horiz-adv-x="1171" d="M166 0v1417h885v-229h-648v-371h525v-225h-525v-363h648v-229h-885zM274 1606l265 336h188l266 -336h-252l-106 141l-109 -141h-252z" />
<glyph unicode="&#xcb;" horiz-adv-x="1171" d="M166 0v1417h885v-229h-648v-371h525v-225h-525v-363h648v-229h-885zM301 1663v242h223v-242h-223zM733 1663v242h223v-242h-223z" />
<glyph unicode="&#xcc;" horiz-adv-x="548" d="M-63 1722l77 220l500 -189l-72 -197zM154 0v1417h241v-1417h-241z" />
<glyph unicode="&#xcd;" horiz-adv-x="548" d="M0 1769l500 191l78 -221l-506 -164zM154 0v1417h241v-1417h-241z" />
<glyph unicode="&#xce;" horiz-adv-x="548" d="M-102 1618l270 295h213l270 -295h-264l-111 108l-108 -108h-270zM154 0v1417h241v-1417h-241z" />
<glyph unicode="&#xcf;" horiz-adv-x="548" d="M-57 1645v241h223v-241h-223zM154 0v1417h241v-1417h-241zM387 1645v241h223v-241h-223z" />
<glyph unicode="&#xd0;" horiz-adv-x="1292" d="M37 590v229h121v598h477q170 0 282.5 -43t175 -134t87 -211t24.5 -296q0 -184 -23.5 -309t-84 -226.5t-174 -149.5t-287.5 -48h-477v590h-121zM395 229h240q102 0 167.5 36t98.5 108.5t44 154.5t11 205q0 242 -62.5 348.5t-258.5 106.5h-240v-369h281v-229h-281v-361z " />
<glyph unicode="&#xd1;" horiz-adv-x="1406" d="M139 0v1417h389l451 -1118h35v1118h241v-1417h-378l-461 1118h-37v-1118h-240zM324 1812q12 14 32.5 35t75.5 54.5t100 33.5q66 0 172.5 -46t129 -46t62.5 20.5t69 41.5l28 20l51 -178q-12 -14 -31.5 -33.5t-73.5 -53.5t-99 -34q-55 0 -166 47t-139 47q-25 0 -65 -20.5 t-68 -41.5l-27 -22z" />
<glyph unicode="&#xd2;" horiz-adv-x="1343" d="M100 698q0 375 128 558.5t443.5 183.5t443.5 -183.5t128 -558t-127 -548t-444.5 -173.5t-444.5 174.5t-127 546.5zM348 698q0 -262 67.5 -375.5t256 -113.5t256 112.5t67.5 377t-68.5 387t-255 122.5t-255 -122.5t-68.5 -387.5zM356 1722l78 220l500 -189l-72 -197z" />
<glyph unicode="&#xd3;" horiz-adv-x="1343" d="M100 698q0 375 128 558.5t443.5 183.5t443.5 -183.5t128 -558t-127 -548t-444.5 -173.5t-444.5 174.5t-127 546.5zM348 698q0 -262 67.5 -375.5t256 -113.5t256 112.5t67.5 377t-68.5 387t-255 122.5t-255 -122.5t-68.5 -387.5zM358 1790l500 190l80 -221l-508 -164z" />
<glyph unicode="&#xd4;" horiz-adv-x="1343" d="M100 698q0 375 128 558.5t443.5 183.5t443.5 -183.5t128 -558t-127 -548t-444.5 -173.5t-444.5 174.5t-127 546.5zM309 1606l264 336h189l266 -336h-252l-106 141l-109 -141h-252zM348 698q0 -262 67.5 -375.5t256 -113.5t256 112.5t67.5 377t-68.5 387t-255 122.5 t-255 -122.5t-68.5 -387.5z" />
<glyph unicode="&#xd5;" horiz-adv-x="1343" d="M100 698q0 375 128 558.5t443.5 183.5t443.5 -183.5t128 -558t-127 -548t-444.5 -173.5t-444.5 174.5t-127 546.5zM295 1812q12 14 32.5 35t76 54.5t100.5 33.5q66 0 172 -46t128.5 -46t62.5 20.5t69 41.5l29 20l51 -178q-12 -14 -31.5 -33.5t-74 -53.5t-99.5 -34 q-55 0 -165.5 47t-139.5 47q-25 0 -65 -20.5t-67 -41.5l-28 -22zM348 698q0 -262 67.5 -375.5t256 -113.5t256 112.5t67.5 377t-68.5 387t-255 122.5t-255 -122.5t-68.5 -387.5z" />
<glyph unicode="&#xd6;" horiz-adv-x="1343" d="M100 698q0 375 128 558.5t443.5 183.5t443.5 -183.5t128 -558t-127 -548t-444.5 -173.5t-444.5 174.5t-127 546.5zM334 1663v242h225v-242h-225zM348 698q0 -262 67.5 -375.5t256 -113.5t256 112.5t67.5 377t-68.5 387t-255 122.5t-255 -122.5t-68.5 -387.5zM766 1663 v242h225v-242h-225z" />
<glyph unicode="&#xd7;" horiz-adv-x="1210" d="M346 219l365 371l-365 371l152 151l364 -371l367 371l153 -151l-366 -371l366 -371l-153 -149l-367 368l-364 -368z" />
<glyph unicode="&#xd8;" horiz-adv-x="1323" d="M90 698q0 375 128 558.5t444 183.5q129 0 223 -31l116 250l185 -78l-127 -272q174 -168 174 -611q0 -375 -127 -548t-444 -173q-121 0 -211 25l-119 -256l-180 92l118 256q-180 158 -180 604zM338 698q0 -244 51 -348l393 840q-51 18 -120 18q-186 0 -255 -123t-69 -387z M551 221q50 -12 111 -12q188 0 255.5 112.5t67.5 376.5q0 225 -49 346z" />
<glyph unicode="&#xd9;" horiz-adv-x="1308" d="M96 1722l78 220l500 -189l-72 -197zM135 457v960h242v-960q0 -131 70.5 -185.5t203.5 -54.5q135 0 208 55.5t73 184.5v960h242v-960q0 -250 -130.5 -362.5t-392.5 -112.5q-258 0 -387 112.5t-129 362.5z" />
<glyph unicode="&#xda;" horiz-adv-x="1314" d="M143 457v960h242v-960q0 -131 70.5 -185.5t203.5 -54.5q135 0 208 55.5t73 184.5v960h242v-960q0 -250 -130 -362.5t-393 -112.5q-258 0 -387 112.5t-129 362.5zM352 1790l500 190l80 -221l-508 -164z" />
<glyph unicode="&#xdb;" horiz-adv-x="1314" d="M143 457v960h242v-960q0 -131 70.5 -185.5t203.5 -54.5q135 0 208 55.5t73 184.5v960h242v-960q0 -250 -130 -362.5t-393 -112.5q-258 0 -387 112.5t-129 362.5zM303 1606l264 336h189l266 -336h-252l-106 141l-109 -141h-252z" />
<glyph unicode="&#xdc;" horiz-adv-x="1314" d="M143 457v960h242v-960q0 -131 70.5 -185.5t203.5 -54.5q135 0 208 55.5t73 184.5v960h242v-960q0 -250 -130 -362.5t-393 -112.5q-258 0 -387 112.5t-129 362.5zM385 1663v242h223v-242h-223zM817 1663v242h223v-242h-223z" />
<glyph unicode="&#xdd;" horiz-adv-x="1105" d="M2 1417h268l285 -543l283 543h268l-428 -813v-604h-242v606zM215 1790l500 190l80 -221l-508 -164z" />
<glyph unicode="&#xde;" horiz-adv-x="1120" d="M78 0v1417h241v-211h273q485 0 485 -477q0 -244 -123.5 -378t-361.5 -134h-273v-217h-241zM319 451h271q121 0 181 72.5t60 205.5q0 127 -59 187.5t-182 60.5h-271v-526z" />
<glyph unicode="&#xdf;" horiz-adv-x="1269" d="M152 0v1085q0 205 108.5 293t339.5 88q238 0 342.5 -70.5t104.5 -238.5q0 -109 -42 -165t-139 -97q-76 -33 -100.5 -50.5t-24.5 -43.5q0 -31 32 -55.5t157 -86.5q150 -74 204 -130t54 -162q0 -221 -106.5 -303t-381.5 -82q-35 0 -91 10t-95 20l-39 11l8 184 q182 -8 217 -8q135 0 190.5 30.5t55.5 104.5q0 37 -38 68.5t-160 89.5q-143 63 -195.5 124.5t-52.5 159.5q0 90 39 142.5t123 89.5q88 37 115.5 64.5t27.5 68.5q0 63 -48 87.5t-157 24.5q-106 0 -160.5 -39.5t-54.5 -138.5v-1075h-233z" />
<glyph unicode="&#xe0;" horiz-adv-x="1089" d="M57 305q0 158 85 227.5t259 81.5l252 23v63q0 137 -141 138l-385 -19l-6 172q252 55 418 56q348 -1 348 -347v-450q4 -45 22.5 -66.5t63.5 -27.5l-8 -179q-176 0 -277 74q-160 -74 -323 -74q-307 0 -308 328zM193 1362l73 207l500 -189l-68 -184zM293 311 q0 -141 121 -141q41 0 100 10t99 21l40 10v260l-225 -20q-135 -12 -135 -140z" />
<glyph unicode="&#xe1;" horiz-adv-x="1089" d="M57 305q0 158 85 227.5t259 81.5l252 23v63q0 137 -141 138l-385 -19l-6 172q252 55 418 56q348 -1 348 -347v-450q4 -45 22.5 -66.5t63.5 -27.5l-8 -179q-176 0 -277 74q-160 -74 -323 -74q-307 0 -308 328zM201 1380l499 191l80 -221l-508 -164zM293 311 q0 -141 121 -141q41 0 100 10t99 21l40 10v260l-225 -20q-135 -12 -135 -140z" />
<glyph unicode="&#xe2;" horiz-adv-x="1089" d="M57 305q0 158 85 227.5t259 81.5l252 23v63q0 137 -141 138l-385 -19l-6 172q252 55 418 56q348 -1 348 -347v-450q4 -45 22.5 -66.5t63.5 -27.5l-8 -179q-176 0 -277 74q-160 -74 -323 -74q-307 0 -308 328zM139 1196l264 336h189l266 -336h-252l-106 141l-109 -141 h-252zM293 311q0 -141 121 -141q41 0 100 10t99 21l40 10v260l-225 -20q-135 -12 -135 -140z" />
<glyph unicode="&#xe3;" horiz-adv-x="1089" d="M57 305q0 158 84 228.5t258 82.5l254 21v61q0 59 -33.5 91t-93.5 32q-68 0 -166 -5t-163 -9l-66 -4l-8 198q264 45 416 46q174 0 261 -81.5t87 -265.5v-421q2 -53 20.5 -74t63.5 -29l-8 -199q-113 0 -168.5 16.5t-106.5 55.5q-176 -72 -336 -72q-143 0 -219 87.5 t-76 240.5zM125 1403q12 14 32.5 34.5t76 54.5t100.5 34q66 0 172 -46t128.5 -46t62.5 20.5t69 40.5l29 21l51 -179q-12 -14 -31.5 -33.5t-74 -53t-99.5 -33.5q-55 0 -165.5 47t-139.5 47q-25 0 -65 -20.5t-67 -42.5l-28 -21zM293 311q0 -133 104 -133q49 0 112.5 10.5 t103.5 20.5l40 10v236l-225 -13q-135 -12 -135 -131z" />
<glyph unicode="&#xe4;" horiz-adv-x="1089" d="M57 305q0 158 84 228.5t258 82.5l254 21v61q0 59 -33.5 91t-93.5 32q-68 0 -166 -5t-163 -9l-66 -4l-8 198q264 45 416 46q174 0 261 -81.5t87 -265.5v-421q2 -53 20.5 -74t63.5 -29l-8 -199q-113 0 -168.5 16.5t-106.5 55.5q-176 -72 -336 -72q-143 0 -219 87.5 t-76 240.5zM182 1253v242h224v-242h-224zM293 311q0 -133 104 -133q49 0 112.5 10.5t103.5 20.5l40 10v236l-225 -13q-135 -12 -135 -131zM614 1253v242h224v-242h-224z" />
<glyph unicode="&#xe5;" horiz-adv-x="1089" d="M57 305q0 158 85 227.5t259 81.5l252 23v63q0 137 -141 138l-385 -19l-6 172q252 55 418 56q348 -1 348 -347v-450q4 -45 22.5 -66.5t63.5 -27.5l-8 -179q-176 0 -277 74q-160 -74 -323 -74q-307 0 -308 328zM293 311q0 -141 121 -141q41 0 100 10t99 21l40 10v260 l-225 -20q-135 -12 -135 -140zM295 1311q0 96 66.5 163.5t164.5 67.5q96 0 163 -67.5t67 -163.5q0 -98 -66.5 -164t-163.5 -66q-98 0 -164.5 66t-66.5 164zM453 1310.5q0 -32.5 21.5 -54t53.5 -21.5q31 0 52.5 21.5t21.5 54t-21.5 54t-52.5 21.5q-33 0 -54 -21.5t-21 -54z " />
<glyph unicode="&#xe6;" horiz-adv-x="1695" d="M109 305q0 164 88 232.5t272 80.5l236 19v61q0 59 -35 91t-92 32q-68 0 -166.5 -5t-163.5 -10l-66 -5l-8 205q264 41 416 41q186 0 268 -101q102 100 289 101q219 0 326.5 -115t107.5 -352l-16 -168h-627q2 -115 54 -168.5t173 -53.5q74 0 168 5.5t153 9.5l58 4l4 -182 q-236 -49 -418 -50q-207 0 -309 103l-53 -25q-174 -78 -365 -78q-143 0 -218.5 86.5t-75.5 241.5zM344 311q1 -133 105 -133q47 0 113.5 11.5t104.5 20.5t48 13q-12 104 -13 232l-223 -13q-135 -10 -135 -131zM938 594h412q0 133 -46.5 188.5t-157 55.5t-159.5 -58.5 t-49 -185.5z" />
<glyph unicode="&#xe7;" horiz-adv-x="892" d="M82 524.5q0 276.5 101.5 399.5t328.5 123q49 0 127 -9.5t131 -19.5l53 -10l-8 -203q-162 18 -240 18q-154 0 -205 -64.5t-51 -234.5q0 -190 50.5 -257.5t208.5 -67.5l239 18l6 -203q-162 -29 -274 -34v-64q129 -2 186.5 -38t57.5 -138q0 -109 -56.5 -163t-158.5 -54 q-39 0 -86.5 5t-73.5 10l-27 5l8 140q70 -4 111 -5q82 0 82 62q0 53 -82 53h-61v187q-199 14 -283 141t-84 403.5z" />
<glyph unicode="&#xe8;" horiz-adv-x="1021" d="M78 500q0 547 444 547q436 0 436 -467l-16 -168h-629q2 -115 54.5 -168.5t175.5 -53.5q72 0 166 5.5t152 9.5l59 4l4 -182q-233 -49 -416 -50q-229 0 -329.5 125t-100.5 398zM186 1329l74 207l500 -188l-68 -185zM313 594h414q0 133 -47 188.5t-158 55.5 q-109 0 -159 -58.5t-50 -185.5z" />
<glyph unicode="&#xe9;" horiz-adv-x="1021" d="M78 500q0 547 444 547q436 0 436 -467l-16 -168h-629q2 -115 54.5 -168.5t175.5 -53.5q72 0 166 5.5t152 9.5l59 4l4 -182q-233 -49 -416 -50q-229 0 -329.5 125t-100.5 398zM254 1380l500 191l80 -221l-508 -164zM313 594h414q0 133 -47 188.5t-158 55.5 q-109 0 -159 -58.5t-50 -185.5z" />
<glyph unicode="&#xea;" horiz-adv-x="1021" d="M78 500q0 547 444 547q436 0 436 -467l-16 -168h-629q2 -115 54.5 -168.5t175.5 -53.5q72 0 166 5.5t152 9.5l59 4l4 -182q-233 -49 -416 -50q-229 0 -329.5 125t-100.5 398zM180 1196l264 336h189l266 -336h-252l-106 141l-109 -141h-252zM313 594h414q0 133 -47 188.5 t-158 55.5q-109 0 -159 -58.5t-50 -185.5z" />
<glyph unicode="&#xeb;" horiz-adv-x="1021" d="M78 500q0 547 446 547q219 0 326.5 -115t107.5 -352l-16 -168h-627q2 -115 54.5 -168.5t173.5 -53.5q74 0 168 5.5t151 9.5l58 4l4 -182q-233 -49 -416 -50q-229 0 -329.5 125t-100.5 398zM195 1253v242h223v-242h-223zM313 594h414q0 133 -46 188.5t-156.5 55.5 t-160 -57.5t-51.5 -186.5zM627 1253v242h223v-242h-223z" />
<glyph unicode="&#xec;" horiz-adv-x="534" d="M-35 1362l74 207l500 -189l-68 -184zM156 0v1022h233v-1022h-233z" />
<glyph unicode="&#xed;" horiz-adv-x="534" d="M20 1380l500 191l80 -221l-508 -164zM156 0v1022h233v-1022h-233z" />
<glyph unicode="&#xee;" horiz-adv-x="546" d="M-96 1196l264 336h188l267 -336h-252l-107 141l-108 -141h-252zM156 0v1022h233v-1022h-233z" />
<glyph unicode="&#xef;" horiz-adv-x="534" d="M-63 1253v242h223v-242h-223zM156 0v1022h233v-1022h-233zM367 1253v242h225v-242h-225z" />
<glyph unicode="&#xf0;" d="M57 471q0 193 121 306.5t320 113.5q66 0 137.5 -13.5t109.5 -27.5l39 -14q-10 115 -67.5 190.5t-188.5 128.5l-215 -162l-96 135l115 89q-33 8 -178 34l34 199q215 -27 357 -72l198 152l97 -137l-117 -88q313 -176 313 -590q0 -383 -118.5 -558t-387.5 -175 q-229 0 -351 124.5t-122 364.5zM307 471q0 -272 223 -272q131 0 192.5 101t63.5 331q-127 55 -274 55q-94 0 -149.5 -62.5t-55.5 -152.5z" />
<glyph unicode="&#xf1;" horiz-adv-x="1175" d="M168 0v1022h233v-51q162 76 275 76q205 0 280.5 -120t75.5 -392v-535h-233v532q0 158 -33 226.5t-135 68.5q-41 0 -98.5 -12t-94.5 -23l-37 -12v-780h-233zM233 1403q12 14 33 34.5t76 54.5t100 34q66 0 172.5 -46t129 -46t62.5 20.5t68 40.5l29 21l51 -179 q-12 -14 -31.5 -33.5t-73.5 -53t-99 -33.5q-55 0 -166 47t-140 47q-25 0 -64.5 -20.5t-67.5 -42.5l-27 -21z" />
<glyph unicode="&#xf2;" horiz-adv-x="1083" d="M82 516q0 260 106.5 395.5t354.5 135.5q244 0 351 -136.5t107 -394.5q0 -264 -103 -401.5t-355 -137.5t-356.5 136.5t-104.5 402.5zM258 1362l74 207l499 -189l-67 -184zM319 516q0 -176 46.5 -252t177.5 -76q129 0 175 77t46 251q0 166 -50 242t-171 76 q-127 0 -175.5 -74t-48.5 -244z" />
<glyph unicode="&#xf3;" horiz-adv-x="1083" d="M82 516q0 260 106.5 395.5t354.5 135.5q244 0 351 -136.5t107 -394.5q0 -264 -103 -401.5t-355 -137.5t-356.5 136.5t-104.5 402.5zM229 1380l500 191l80 -221l-508 -164zM319 516q0 -176 46.5 -252t177.5 -76q129 0 175 77t46 251q0 166 -50 242t-171 76 q-127 0 -175.5 -74t-48.5 -244z" />
<glyph unicode="&#xf4;" horiz-adv-x="1083" d="M82 516q0 260 106.5 395.5t354.5 135.5q244 0 351 -136.5t107 -394.5q0 -264 -103 -401.5t-355 -137.5t-356.5 136.5t-104.5 402.5zM172 1196l264 336h189l266 -336h-252l-107 141l-108 -141h-252zM319 516q0 -176 46.5 -252t177.5 -76q129 0 175 77t46 251 q0 166 -50 242t-171 76q-127 0 -175.5 -74t-48.5 -244z" />
<glyph unicode="&#xf5;" horiz-adv-x="1083" d="M82 516q0 260 106.5 395.5t354.5 135.5q244 0 351 -136.5t107 -394.5q0 -264 -103 -401.5t-355 -137.5t-356.5 136.5t-104.5 402.5zM172 1403q12 14 32.5 34.5t76 54.5t100.5 34q66 0 173.5 -46t127.5 -46q23 0 62.5 20.5t68.5 40.5l29 21l51 -179q-12 -14 -31.5 -33.5 t-74 -53t-99.5 -33.5q-55 0 -164.5 47t-138.5 47q-25 0 -64.5 -20.5t-67.5 -42.5l-28 -21zM319 516q0 -176 46.5 -252t177.5 -76q129 0 175 77t46 251q0 166 -50 242t-171 76q-127 0 -175.5 -74t-48.5 -244z" />
<glyph unicode="&#xf6;" horiz-adv-x="1083" d="M82 516q0 260 106.5 395.5t354.5 135.5q244 0 351 -136.5t107 -394.5q0 -264 -103 -401.5t-355 -137.5t-356.5 136.5t-104.5 402.5zM211 1253v242h223v-242h-223zM319 516q0 -176 46.5 -252t177.5 -76q129 0 175 77t46 251q0 166 -50 242t-171 76q-127 0 -175.5 -74 t-48.5 -244zM643 1253v242h223v-242h-223z" />
<glyph unicode="&#xf7;" d="M90 573v232h252v221h354v-221h240v-232h-846zM403 133v248h234v-248h-234z" />
<glyph unicode="&#xf8;" horiz-adv-x="1083" d="M82 516q0 260 106.5 395.5t354.5 135.5q68 0 127 -13l82 209l145 -55l-86 -207q190 -117 190 -465q0 -264 -103 -401.5t-355 -137.5q-76 0 -137 13l-89 -213l-143 53l90 213q-182 117 -182 473zM319 516q0 -180 46 -250l223 563q-29 5 -45 5q-127 0 -175.5 -74 t-48.5 -244zM483 193q37 -5 60 -5q129 0 175 77t46 251q0 170 -51 244z" />
<glyph unicode="&#xf9;" horiz-adv-x="1146" d="M137 487v535h234v-533q0 -178 28.5 -239.5t139.5 -61.5q41 0 96 12.5t91 23.5l36 12v786h233v-1022h-233v51q-160 -74 -270 -74q-213 0 -284 114t-71 396zM201 1350l86 219l497 -191l-82 -211z" />
<glyph unicode="&#xfa;" horiz-adv-x="1146" d="M137 487v535h234v-533q0 -178 28.5 -239.5t139.5 -61.5q41 0 96 12.5t91 23.5l36 12v786h233v-1022h-233v51q-160 -74 -270 -74q-213 0 -284 114t-71 396zM258 1380l500 191l80 -221l-508 -164z" />
<glyph unicode="&#xfb;" horiz-adv-x="1146" d="M137 487v535h234v-533q0 -178 28.5 -239.5t139.5 -61.5q41 0 96 12.5t91 23.5l36 12v786h233v-1022h-233v51q-160 -74 -270 -74q-213 0 -284 114t-71 396zM168 1196l264 336h189l266 -336h-252l-107 141l-108 -141h-252z" />
<glyph unicode="&#xfc;" horiz-adv-x="1146" d="M137 487v535h234v-533q0 -178 28.5 -239.5t139.5 -61.5q41 0 96 12.5t91 23.5l36 12v786h233v-1022h-233v51q-160 -74 -270 -74q-213 0 -284 114t-71 396zM248 1253v242h223v-242h-223zM680 1253v242h223v-242h-223z" />
<glyph unicode="&#xfd;" horiz-adv-x="983" d="M10 1022h232l211 -795h53l211 795h231l-383 -1460h-229l113 438h-173zM231 1380l500 191l80 -221l-508 -164z" />
<glyph unicode="&#xfe;" horiz-adv-x="1101" d="M178 -438v1884h234v-455q138 56 247 56q211 0 305.5 -120t94.5 -403q0 -313 -111.5 -430t-390.5 -117q-23 0 -79 3.5t-66 3.5v-422h-234zM412 199q106 -11 145 -11q158 0 211 74t53 262q0 166 -46 235.5t-146 69.5q-41 0 -95.5 -7t-88.5 -14l-33 -7v-602z" />
<glyph unicode="&#xff;" horiz-adv-x="991" d="M27 1022h231l211 -795h53l211 795h232l-383 -1460h-230l113 438h-172zM176 1253v242h223v-242h-223zM608 1253v242h223v-242h-223z" />
<glyph unicode="&#x152;" horiz-adv-x="1933" d="M123 707q0 397 118.5 565t417.5 168q117 0 256 -23h881v-231h-643v-350h520v-230h-520v-375h643v-231h-878q-143 -23 -259 -23q-162 0 -267 44.5t-163.5 139.5t-82 224t-23.5 322zM371 707q0 -283 64 -388.5t263 -105.5q49 0 217 14v963q-168 14 -223 14 q-186 0 -253.5 -104.5t-67.5 -392.5z" />
<glyph unicode="&#x153;" horiz-adv-x="1794" d="M119 516q0 260 106.5 395.5t354.5 135.5q238 0 342 -140q106 139 325 139.5t326.5 -114.5t107.5 -352l-16 -168h-627q2 -115 54.5 -168.5t173.5 -53.5q74 0 168 5.5t151 9.5l57 4l5 -182q-233 -49 -416 -50q-219 0 -320 121q-104 -121 -331 -121q-252 0 -356.5 136.5 t-104.5 402.5zM358 516q0 -176 46.5 -252t175.5 -76t175 77t46 251q0 166 -49.5 242t-171.5 76q-125 0 -173.5 -74t-48.5 -244zM1036 594h414q0 133 -46 188.5t-156.5 55.5t-161 -58.5t-50.5 -185.5z" />
<glyph unicode="&#x178;" horiz-adv-x="1157" d="M27 1417h268l285 -543l282 543h268l-428 -813v-604h-241v606zM250 1645v241h223v-241h-223zM694 1645v241h224v-241h-224z" />
<glyph unicode="&#x2c6;" horiz-adv-x="526" d="M-74 1196l264 336h189l266 -336h-252l-106 141l-109 -141h-252z" />
<glyph unicode="&#x2dc;" horiz-adv-x="526" d="M-72 1403q12 14 33 34.5t76 54.5t100 34q66 0 172.5 -46t129 -46t62.5 20.5t68 40.5l29 21l51 -179q-12 -14 -31.5 -33.5t-74 -53t-99.5 -33.5q-55 0 -165.5 47t-139.5 47q-25 0 -64.5 -20.5t-67.5 -42.5l-27 -21z" />
<glyph unicode="&#x2000;" horiz-adv-x="990" />
<glyph unicode="&#x2001;" horiz-adv-x="1980" />
<glyph unicode="&#x2002;" horiz-adv-x="990" />
<glyph unicode="&#x2003;" horiz-adv-x="1980" />
<glyph unicode="&#x2004;" horiz-adv-x="660" />
<glyph unicode="&#x2005;" horiz-adv-x="495" />
<glyph unicode="&#x2006;" horiz-adv-x="330" />
<glyph unicode="&#x2007;" horiz-adv-x="330" />
<glyph unicode="&#x2008;" horiz-adv-x="247" />
<glyph unicode="&#x2009;" horiz-adv-x="396" />
<glyph unicode="&#x200a;" horiz-adv-x="110" />
<glyph unicode="&#x2010;" horiz-adv-x="901" d="M139 461v229h623v-229h-623z" />
<glyph unicode="&#x2011;" horiz-adv-x="901" d="M139 461v229h623v-229h-623z" />
<glyph unicode="&#x2012;" horiz-adv-x="901" d="M139 461v229h623v-229h-623z" />
<glyph unicode="&#x2013;" horiz-adv-x="1024" d="M0 453v213h1024v-213h-1024z" />
<glyph unicode="&#x2014;" horiz-adv-x="2048" d="M0 453v213h2048v-213h-2048z" />
<glyph unicode="&#x2018;" horiz-adv-x="348" d="M-20 1001l114 488h221l-96 -488h-239z" />
<glyph unicode="&#x2019;" horiz-adv-x="348" d="M31 1079l96 488h240l-115 -488h-221z" />
<glyph unicode="&#x201a;" horiz-adv-x="436" d="M14 -248l115 488h221l-96 -488h-240z" />
<glyph unicode="&#x201c;" horiz-adv-x="864" d="M98 1001l115 488h221l-96 -488h-240zM438 1001l115 488h221l-96 -488h-240z" />
<glyph unicode="&#x201d;" horiz-adv-x="987" d="M172 993l96 488h240l-115 -488h-221zM516 993l96 488h240l-115 -488h-221z" />
<glyph unicode="&#x201e;" horiz-adv-x="884" d="M41 -248l96 488h240l-115 -488h-221zM385 -248l96 488h240l-115 -488h-221z" />
<glyph unicode="&#x2022;" d="M295 209v577h496v-577h-496z" />
<glyph unicode="&#x2026;" horiz-adv-x="1523" d="M133 0v305h252v-305h-252zM653 0v305h254v-305h-254zM1176 0v305h251v-305h-251z" />
<glyph unicode="&#x202f;" horiz-adv-x="396" />
<glyph unicode="&#x2039;" horiz-adv-x="761" d="M158 414v172l432 321v-237l-234 -166l234 -189v-237z" />
<glyph unicode="&#x203a;" horiz-adv-x="761" d="M172 94v238l234 188l-234 166v238l434 -322v-172z" />
<glyph unicode="&#x205f;" horiz-adv-x="495" />
<glyph unicode="&#x20ac;" horiz-adv-x="1187" d="M113 412v184h112v152h-112v184h125q29 242 142.5 344t356.5 102q80 0 171 -9t143 -19l51 -11l-8 -213q-203 14 -324 15q-135 0 -197.5 -46t-83.5 -165h469v-182h-485v-152h485v-184h-466q23 -111 85 -155t199 -44l318 16l6 -217q-201 -35 -363 -35q-250 0 -360.5 101.5 t-138.5 333.5h-125z" />
<glyph unicode="&#x2122;" d="M14 1167v142h410v-142h-100v-487h-158v487h-152zM479 678v631h189l102 -357l109 357h188v-631h-147v391l-93 -352h-104l-96 352v-391h-148z" />
<glyph unicode="&#xe000;" horiz-adv-x="1020" d="M0 1020h1020v-1020h-1020v1020z" />
<glyph unicode="&#xfb01;" horiz-adv-x="1222" d="M843 0v1022h234v-1022h-234zM843 1188v248h234v-248h-234zM43 811v211h117v63q0 219 63.5 300t227.5 81l223 -22l-2 -193q-98 4 -162 4q-68 0 -92.5 -36.5t-24.5 -135.5v-61h264v-211h-264v-811h-233v811h-117z" />
<glyph unicode="&#xfb02;" horiz-adv-x="1226" d="M846 0v1446h233v-1446h-233zM43 811v211h117v63q0 219 63.5 300t227.5 81l223 -22l-2 -193q-98 4 -162 4q-68 0 -92.5 -36.5t-24.5 -135.5v-61h264v-211h-264v-811h-233v811h-117z" />
<glyph unicode="&#xfb03;" horiz-adv-x="1918" d="M1539 0v1022h234v-1022h-234zM1539 1188v248h234v-248h-234zM739 811v211h117v63q0 219 63.5 300t227.5 81l223 -22l-2 -193q-98 4 -162 4q-68 0 -92.5 -36.5t-24.5 -135.5v-61h264v-211h-264v-811h-233v811h-117zM43 811v211h117v63q0 219 63.5 300t227.5 81l223 -22 l-2 -193q-98 4 -162 4q-68 0 -92.5 -36.5t-24.5 -135.5v-61h264v-211h-264v-811h-233v811h-117z" />
<glyph unicode="&#xfb04;" horiz-adv-x="1922" d="M1542 0v1446h233v-1446h-233zM739 811v211h117v63q0 219 63.5 300t227.5 81l223 -22l-2 -193q-98 4 -162 4q-68 0 -92.5 -36.5t-24.5 -135.5v-61h264v-211h-264v-811h-233v811h-117zM43 811v211h117v63q0 219 63.5 300t227.5 81l223 -22l-2 -193q-98 4 -162 4 q-68 0 -92.5 -36.5t-24.5 -135.5v-61h264v-211h-264v-811h-233v811h-117z" />
<glyph horiz-adv-x="481" />
</font>
</defs>
</svg>
