<?xml version="1.0" standalone="no"?>
<!DOCTYPE svg PUBLIC "-//W3C//DTD SVG 1.1//EN" "http://www.w3.org/Graphics/SVG/1.1/DTD/svg11.dtd" >
<svg xmlns="http://www.w3.org/2000/svg">
<metadata>
This is a custom SVG webfont generated by Font Squirrel.
Copyright   : Copyright c 20082010 by Accademia di Belle Arti di Urbino and others All rights reserved
Designer    : Accademia di Belle Arti di Urbino and others
Foundry     : Accademia di Belle Arti di Urbino and others
Foundry URL : wwwcampivisivinet
</metadata>
<defs>
<font id="TitilliumText25L600wt" horiz-adv-x="1085" >
<font-face units-per-em="2048" ascent="1536" descent="-512" />
<missing-glyph horiz-adv-x="481" />
<glyph unicode=" "  horiz-adv-x="481" />
<glyph unicode="&#x09;" horiz-adv-x="481" />
<glyph unicode="&#xa0;" horiz-adv-x="481" />
<glyph unicode="!" d="M451 0v270h208v-270h-208zM451 1434h208l-6 -940h-196z" />
<glyph unicode="&#x22;" horiz-adv-x="665" d="M82 1421h186l-6 -471h-178zM403 1421h187l-6 -471h-178z" />
<glyph unicode="#" d="M12 358v164h215v316h-215v163h215v359h172v-359h283v359h172v-359h217v-163h-217v-316h217v-164h-217v-358h-172v358h-283v-358h-172v358h-215zM399 522h283v316h-283v-316z" />
<glyph unicode="$" d="M88 1030q0 193 124 290t347 97h31l28 213h121l-28 -223l260 -37l-15 -176q-145 18 -270 29l-55 -437q207 -57 287.5 -135t80.5 -250q0 -215 -120.5 -318t-339.5 -103h-11l-30 -238q-121 6 -121 14l29 232l-291 39l20 176q158 -23 295 -31l57 455q-217 53 -308 138 t-91 265zM285 1034q0 -94 48 -137t179 -80l53 412h-6q-274 0 -274 -195zM553 168q129 4 190.5 57t61.5 170q0 84 -43 127t-156 76z" />
<glyph unicode="%" d="M25 1149q-1 287 241 287q240 0 240 -287q0 -293 -240 -293q-242 0 -241 293zM174 1149q0 -88 19.5 -128t72.5 -40q51 0 70.5 40t19.5 128t-19.5 126t-70.5 38q-53 0 -72.5 -38t-19.5 -126zM182 78l637 1349l111 -63l-639 -1350zM596 295q0 289 242 289q240 0 239 -289 q0 -293 -239 -293q-242 0 -242 293zM745 295q0 -88 19.5 -128t73 -40t72 39t18.5 129q0 88 -18.5 126t-72 38t-73 -38t-19.5 -126z" />
<glyph unicode="&#x26;" horiz-adv-x="1433" d="M86 414q0 158 78 255t227 160q-63 80 -83.5 140.5t-20.5 156.5q0 147 99.5 233.5t275.5 86.5q186 0 281 -87t95 -247q0 -139 -67.5 -225t-231.5 -178l250 -250q37 117 55 262l189 -4q-31 -223 -94 -381l252 -240l-117 -133l-234 217q-100 -115 -207.5 -165t-263.5 -50 q-238 0 -360.5 117t-122.5 332zM285 416q0 -129 74.5 -200t215.5 -71q102 0 176 36t144 120l-383 393q-227 -86 -227 -278zM481 1102q0 -127 90 -223l47 -48q123 61 173.5 117t50.5 146q0 172 -180.5 172t-180.5 -164z" />
<glyph unicode="'" horiz-adv-x="204" d="M0 1419h190l-10 -479h-176z" />
<glyph unicode="(" horiz-adv-x="532" d="M51 616.5q0 182.5 50.5 411.5t99.5 369l49 139h209q-23 -59 -54.5 -158.5t-86 -344.5t-54.5 -417q0 -170 48 -388t98 -351l49 -133h-209q-23 51 -55.5 139t-88 319.5t-55.5 414z" />
<glyph unicode=")" horiz-adv-x="532" d="M51 -256q23 57 54.5 152.5t86 333t54.5 407.5q0 172 -48 396t-98 364l-49 139h209q23 -55 55.5 -147.5t88 -331t55.5 -420.5t-49.5 -405.5t-99.5 -355.5l-50 -132h-209z" />
<glyph unicode="*" d="M240 938l219 162l-213 155l71 99l213 -152l84 250l119 -39l-82 -256h262v-119h-264l82 -254l-117 -34l-84 256l-217 -162z" />
<glyph unicode="+" horiz-adv-x="987" d="M-20 475v176h421v422h181v-422h426v-176h-426v-426h-181v426h-421z" />
<glyph unicode="," horiz-adv-x="348" d="M31 -252l98 492h211l-117 -492h-192z" />
<glyph unicode="-" horiz-adv-x="901" d="M135 481v189h631v-189h-631z" />
<glyph unicode="." horiz-adv-x="507" d="M135 0v270h211v-270h-211z" />
<glyph unicode="/" d="M158 35l575 1425l185 -65l-576 -1426z" />
<glyph unicode="0" d="M37 659q0 389 126 552t378 163q254 0 380 -161.5t126 -553.5q0 -371 -127 -526.5t-379 -155.5t-378 155t-126 527zM250 657q0 -283 68.5 -386t224 -103t223.5 104.5t68 386.5q0 299 -67 412t-224.5 113t-225 -113t-67.5 -414z" />
<glyph unicode="1" d="M109 1063l432 289h186v-1352h-199v1122l-327 -217z" />
<glyph unicode="2" d="M113 0v182l354 363q106 109 152.5 161t86 126.5t39.5 146.5q0 106 -65.5 152.5t-204.5 46.5q-66 0 -150.5 -9.5t-136.5 -19.5l-51 -10l-14 182q205 53 395 53q221 0 326.5 -90t105.5 -280q0 -145 -61.5 -252t-216.5 -263l-293 -299h602v-190h-868z" />
<glyph unicode="3" d="M98 27l23 180q223 -37 403 -37q266 2 267 217q0 203 -252 211h-273v182h273q78 0 149.5 62.5t71.5 146.5q0 104 -61.5 148.5t-190.5 44.5q-80 0 -172 -8.5t-145 -16.5l-52 -8l-20 176q219 49 399 49q244 0 345.5 -86t101.5 -272q0 -53 -16.5 -101.5t-30 -74t-52.5 -58 t-44 -36t-44 -29.5q111 -45 164 -112.5t53 -211.5q0 -211 -107.5 -313.5t-338.5 -102.5q-92 0 -205 12.5t-179 24.5z" />
<glyph unicode="4" d="M53 233v164l371 955h219l-362 -928h405v424h199v-424h155v-191h-155v-245h-199v245h-633z" />
<glyph unicode="5" d="M90 39l23 180q252 -49 430 -49q117 0 187.5 69.5t70.5 194.5q0 233 -254 234q-66 0 -135.5 -16.5t-105.5 -31.5l-36 -16l-157 33l43 717h800v-193h-620l-35 -370q150 63 264 63q217 0 329 -97.5t112 -312.5q0 -225 -120 -344.5t-337 -119.5q-92 0 -207 14t-183 30z" />
<glyph unicode="6" d="M61 678q0 369 139.5 532.5t399.5 163.5q76 0 172 -9t154 -17l57 -9l-18 -182q-193 27 -365 27q-164 0 -249 -102.5t-85 -299.5l48 17q48 16 127 34.5t137 18.5q459 0 458 -424q0 -219 -126 -335t-355 -116q-494 0 -494 701zM264 608q4 -442 291 -442q274 0 274 262 q0 242 -266 242q-63 -2 -138 -17.5t-118 -29.5z" />
<glyph unicode="7" d="M109 1161v193h847v-248l-512 -1135l-186 56l494 1087v47h-643z" />
<glyph unicode="8" d="M41 344q0 141 51 216t162 142q-102 61 -146.5 131t-44.5 187q0 172 130.5 263t355.5 91t359 -91t134 -265q0 -123 -44 -188.5t-156 -127.5q113 -63 167 -134.5t54 -200.5q0 -106 -40 -184.5t-111.5 -121.5t-162 -63.5t-200.5 -20.5q-508 0 -508 367zM256 385 q0 -217 293 -217q301 0 301 223q0 88 -51 136t-150 79h-205q-188 -57 -188 -221zM276 991q0 -78 41 -126t127 -83h205q90 35 134 84t44 125q0 102 -69.5 147.5t-206.5 45.5q-135 0 -205 -45t-70 -148z" />
<glyph unicode="9" d="M57 924q0 213 129 331.5t349 118.5q498 0 497 -698q0 -379 -137 -539t-406 -160q-76 0 -172 9.5t-153 18.5l-58 9l19 179q193 -27 364 -27q334 0 338 399l-50 -15q-50 -15 -131 -31.5t-138 -16.5q-451 0 -451 422zM262 924q0 -240 262 -240q57 0 134 15.5t124 30.5l47 15 q-4 203 -75.5 323t-218.5 120q-125 0 -199 -70.5t-74 -193.5z" />
<glyph unicode=":" horiz-adv-x="397" d="M106 0v270h209v-270h-209zM106 637v270h209v-270h-209z" />
<glyph unicode=";" horiz-adv-x="436" d="M35 -240l110 504h211l-141 -504h-180zM131 637v270h209v-270h-209z" />
<glyph unicode="&#x3c;" d="M129 532v201l711 412v-205l-523 -303l523 -318v-204q-78 41 -357.5 209t-353.5 208z" />
<glyph unicode="=" d="M59 285v178h949v-178h-949zM59 690v178h949v-178h-949z" />
<glyph unicode="&#x3e;" d="M129 115v204l522 318l-522 303v205l711 -412v-201q-74 -41 -353.5 -208.5t-357.5 -208.5z" />
<glyph unicode="?" horiz-adv-x="790" d="M14 1401q236 57 346 57q229 0 335 -85t106 -288q0 -98 -39 -180t-95.5 -133t-112.5 -95t-95 -91t-39 -94v-78h-205v84q0 74 39 136t93 107t109.5 90.5t94.5 103.5t39 128q0 106 -51.5 150t-186.5 44q-45 0 -122.5 -11t-134.5 -22l-56 -12zM213 0v270h209v-270h-209z" />
<glyph unicode="@" horiz-adv-x="2017" d="M98 535q0 950 934 950q455 0 671 -214t216 -646v-35q0 -186 -24.5 -308t-76 -187.5t-115 -90t-155.5 -24.5q-94 0 -152.5 22.5t-95.5 81.5q-199 -102 -342 -102q-82 0 -143 21.5t-114.5 75.5t-82 158.5t-28.5 258.5q0 274 89 410t318 136q37 0 92.5 -12t93.5 -24l38 -13 v31h192v-410q0 -213 12.5 -306t38 -118.5t84.5 -25.5q63 0 97 25.5t55.5 121t21.5 279.5v37q0 358 -160.5 514.5t-529.5 156.5q-373 0 -555 -184t-182 -579q0 -422 170 -595t567 -173l293 20l8 -186q-203 -20 -301 -21q-238 0 -403.5 46t-288.5 153.5t-182.5 294 t-59.5 461.5zM786 494q0 -186 50.5 -255t136.5 -69q111 0 264 68q-16 98 -16 303v284q-115 35 -187 35q-147 0 -197.5 -81t-50.5 -285z" />
<glyph unicode="A" horiz-adv-x="1239" d="M53 0l365 1421h407l361 -1419h-201l-92 317h-553l-88 -319h-199zM383 510h469l-182 727h-101z" />
<glyph unicode="B" horiz-adv-x="1257" d="M170 0v1421h522q426 0 426 -354q0 -139 -41 -215t-131 -123q104 -39 157.5 -113.5t53.5 -216.5q0 -399 -444 -399h-543zM367 184h338q121 0 184 53.5t63 176.5q0 213 -254 213h-331v-443zM367 807h327q221 0 221 229q0 106 -56 153.5t-175 47.5h-317v-430z" />
<glyph unicode="C" horiz-adv-x="1095" d="M96 709q0 389 113 562t412 173q82 0 180 -13.5t156 -25.5l59 -12l-6 -179q-231 35 -365 35q-205 0 -273.5 -119.5t-68.5 -420.5q0 -299 67.5 -418t278.5 -119q53 0 143.5 8t153.5 18l64 9l6 -180q-233 -49 -395 -50q-158 0 -262.5 45.5t-161 143.5t-79 225t-22.5 318z " />
<glyph unicode="D" horiz-adv-x="1304" d="M170 0v1421h492q309 0 427.5 -171t118.5 -515q0 -174 -23.5 -299t-82 -228.5t-168.5 -155.5t-272 -52h-492zM367 188h295q104 0 174.5 42t105.5 122t48.5 170t13.5 213q0 248 -71 373t-271 125h-295v-1045z" />
<glyph unicode="E" horiz-adv-x="1148" d="M170 0v1421h874v-190h-677v-426h555v-187h-555v-428h677v-190h-874z" />
<glyph unicode="F" horiz-adv-x="1122" d="M170 0v1421h874v-190h-677v-504h555v-188h-555v-539h-197z" />
<glyph unicode="G" horiz-adv-x="1236" d="M98 711q0 379 123 556t428 177q96 0 214 -14.5t188 -28.5l69 -15l-8 -174q-250 37 -436 37q-217 0 -295 -120.5t-78 -417.5t74 -419t293 -122q31 0 67.5 2t67.5 5t57.5 7t43 6.5t18.5 2.5v362h-199v178h395v-706q-291 -49 -465 -50q-311 0 -434 181.5t-123 552.5z" />
<glyph unicode="H" horiz-adv-x="1392" d="M170 0v1421h199v-606h653v606h201v-1421h-201v625h-653v-625h-199z" />
<glyph unicode="I" horiz-adv-x="526" d="M164 0v1421h198v-1421h-198z" />
<glyph unicode="J" horiz-adv-x="634" d="M66 39q123 0 163.5 36t40.5 169v1177h199q0 -217 1 -596t1 -598q0 -121 -22.5 -195.5t-77 -113.5t-123 -51t-182.5 -12v184z" />
<glyph unicode="K" horiz-adv-x="1218" d="M170 0v1421h199v-639l217 13l317 626h232l-371 -710l389 -711h-233l-330 602l-221 -12v-590h-199z" />
<glyph unicode="L" horiz-adv-x="1032" d="M170 0v1421h199v-1231h585v-190h-784z" />
<glyph unicode="M" horiz-adv-x="1738" d="M170 0v1421h334l366 -1138l369 1138h330v-1421h-199v1180h-31l-364 -1127h-211l-365 1127h-30v-1180h-199z" />
<glyph unicode="N" horiz-adv-x="1423" d="M170 0v1421h336l508 -1179h41v1179h198v-1421h-327l-516 1180h-41v-1180h-199z" />
<glyph unicode="O" horiz-adv-x="1329" d="M98 702.5q0 374.5 126 558t440 183.5q315 0 441 -183.5t126 -558.5q0 -379 -124 -552t-443 -173q-315 0 -440.5 175.5t-125.5 550zM303 702.5q0 -284.5 75 -408.5t286 -124q213 0 286.5 122t73.5 410q0 285 -76 417t-284.5 132t-284.5 -132t-76 -416.5z" />
<glyph unicode="P" horiz-adv-x="1230" d="M170 0v1421h516q467 0 467 -469q0 -242 -117 -370.5t-350 -128.5h-317v-453h-199zM369 643h317q264 0 264 309q0 143 -63.5 211t-200.5 68h-317v-588z" />
<glyph unicode="Q" horiz-adv-x="1329" d="M98 702.5q0 374.5 126 558t440 183.5q315 0 441 -183.5t126 -558.5q0 -252 -52.5 -408.5t-172.5 -234.5l170 -278l-185 -86l-182 297q-76 -14 -145 -15q-315 0 -440.5 175.5t-125.5 550zM303 702.5q0 -284.5 75 -408.5t286 -124q213 0 286.5 122t73.5 410q0 285 -76 417 t-284.5 132t-284.5 -132t-76 -416.5z" />
<glyph unicode="R" horiz-adv-x="1269" d="M170 0v1421h530q238 0 351.5 -106.5t113.5 -337.5q0 -315 -241 -412l250 -565h-220l-227 512h-358v-512h-199zM369 700h333q259 1 259 273q0 260 -261 260h-331v-533z" />
<glyph unicode="S" horiz-adv-x="1089" d="M80 1051q0 197 126 296t353 99q70 0 175.5 -12.5t175.5 -23.5l71 -11l-16 -180q-279 34 -399 34h-7q-278 0 -278 -197q0 -110 65.5 -154t259.5 -91q227 -59 315.5 -140t88.5 -261q0 -219 -124 -324.5t-347 -105.5q-68 0 -176.5 12t-182.5 23l-74 12l21 180 q264 -35 410 -35q141 0 207.5 54.5t66.5 176.5q0 98 -61.5 144.5t-231.5 85.5q-240 55 -339 142t-99 276z" />
<glyph unicode="T" horiz-adv-x="999" d="M-12 1231v190h1024v-190h-410v-1231h-201v1231h-413z" />
<glyph unicode="U" horiz-adv-x="1310" d="M147 442v979h199v-979q0 -145 79 -205.5t226 -60.5q152 0 232 61.5t80 204.5v979h200v-979q0 -244 -128 -352t-384 -108q-250 0 -377 109.5t-127 350.5z" />
<glyph unicode="V" horiz-adv-x="1226" d="M53 1421h207l303 -1231h103l301 1231h207l-355 -1421h-409z" />
<glyph unicode="W" horiz-adv-x="1869" d="M66 1421h206l246 -1218h49l256 1210h226l258 -1210h49l241 1218h207l-307 -1421h-330l-233 1124l-225 -1124h-332z" />
<glyph unicode="X" horiz-adv-x="1189" d="M51 0l414 705l-414 716h223l322 -563l319 563h224l-408 -716l408 -705h-224l-319 555l-322 -555h-223z" />
<glyph unicode="Y" horiz-adv-x="1144" d="M33 1421h221l319 -590l316 590h223l-438 -813v-608h-199v608z" />
<glyph unicode="Z" horiz-adv-x="1167" d="M123 0v219l674 973v39h-674v190h921v-221l-673 -973v-37h673v-190h-921z" />
<glyph unicode="[" horiz-adv-x="614" d="M74 1534h461v-188h-263v-1409h263v-189h-459z" />
<glyph unicode="\" horiz-adv-x="1107" d="M121 1378l213 95l635 -1428l-211 -90z" />
<glyph unicode="]" horiz-adv-x="614" d="M74 -63h262v1409h-262v188h461l-3 -1786h-458v189z" />
<glyph unicode="^" d="M74 657l362 695h203l371 -695h-207l-262 502l-262 -502h-205z" />
<glyph unicode="_" horiz-adv-x="1064" d="M55 -10h877v-176h-877v176z" />
<glyph unicode="`" horiz-adv-x="505" d="M-14 1380l63 172l473 -192l-57 -152z" />
<glyph unicode="a" horiz-adv-x="1073" d="M94 299q0 152 80 222.5t248 82.5l287 27v76q0 165 -160 165h-2q-63 0 -159.5 -6t-161.5 -12l-64 -6l-8 147q248 49 413 49h2q334 0 334 -337v-486q6 -80 103 -92l-9 -149q-172 0 -260 75q-172 -78 -346 -78q-145 0 -221 82t-76 240zM291 303q0 -164 137 -164 q53 0 123 12.5t114 25.5l44 13v302l-265 -27q-154 -14 -153 -162z" />
<glyph unicode="b" horiz-adv-x="1112" d="M166 2v1456h192v-475q148 61 275 61q209 0 298 -117.5t89 -400.5q0 -311 -107.5 -430t-386.5 -119q-51 0 -141 6.5t-155 12.5zM358 164q121 -10 168 -10q180 0 237.5 81.5t57.5 290.5q0 184 -48 262t-163 78q-51 0 -113.5 -11t-100.5 -21l-38 -11v-659z" />
<glyph unicode="c" horiz-adv-x="892" d="M92 526q0 279 99.5 398.5t328.5 119.5q45 0 119 -8t125 -16l51 -8l-8 -168q-162 18 -240 18q-164 0 -221 -72.5t-57 -263.5q0 -211 54 -287.5t226 -76.5l240 16l6 -168q-199 -33 -299 -33q-238 0 -331 124t-93 425z" />
<glyph unicode="d" horiz-adv-x="1118" d="M92 512q0 276 101.5 404t324.5 128q37 0 91.5 -5t102.5 -12l48 -7v414h192v-1434h-192v59q-150 -79 -286 -79h-3q-190 0 -284.5 118.5t-94.5 413.5zM289 510q0 -201 53.5 -275.5t155.5 -76.5q53 0 118.5 15t104.5 30l39 14v633q-2 0 -46 6t-94.5 10t-89.5 4 q-131 0 -186 -86t-55 -274z" />
<glyph unicode="e" horiz-adv-x="1038" d="M92 504q0 540 434 540h2q215 0 319.5 -114.5t104.5 -358.5l-12 -141h-651q0 -141 57.5 -207.5t190.5 -66.5q70 0 164 4t153 9l59 5l5 -154q-233 -43 -408 -43q-225 2 -321.5 128t-96.5 399zM287 582h473q0 158 -53.5 224t-178.5 66q-121 0 -180 -68t-61 -222z" />
<glyph unicode="f" horiz-adv-x="690" d="M49 848v174h123v80q0 217 62.5 297t222.5 80l215 -19l-2 -160q-106 4 -170 5q-78 0 -105.5 -43t-27.5 -162v-78h280v-174h-280v-848h-195v848h-123z" />
<glyph unicode="g" horiz-adv-x="1073" d="M88 -178q0 78 37 132t121 120q-63 43 -64 147q0 18 18.5 59.5t37.5 71.5l18 31q-156 82 -156 307q0 182 107.5 268t292.5 86q43 0 96 -6t84 -13l31 -7l303 8v-160l-172 8q59 -68 59 -184q0 -199 -97 -274.5t-310 -75.5q-53 0 -95 8q-31 -80 -30 -106q0 -55 37.5 -69.5 t193.5 -14.5q236 0 324 -62.5t88 -240.5q0 -334 -465 -334q-246 0 -352.5 65.5t-106.5 235.5zM281 -160q0 -86 58 -121.5t210 -35.5q137 0 201.5 37.5t64.5 123.5q0 92 -46 118t-185 28l-209 10q-53 -41 -73.5 -75t-20.5 -85zM295 690q0 -102 46 -150t155 -48q113 0 163 46 t50 152q0 113 -47.5 157t-161.5 44q-104 0 -154.5 -48t-50.5 -153z" />
<glyph unicode="h" horiz-adv-x="1153" d="M166 0v1458h192v-477q166 63 295 63q205 0 278 -115.5t73 -393.5v-535h-193v532q0 186 -37 259t-156 73q-49 0 -114.5 -12t-105.5 -24l-40 -11v-817h-192z" />
<glyph unicode="i" horiz-adv-x="505" d="M156 0v1022h194v-1022h-194zM156 1221v215h194v-215h-194z" />
<glyph unicode="j" horiz-adv-x="524" d="M-66 -299q152 86 196 145.5t44 188.5v987h195v-989q0 -195 -70 -291t-281 -203zM174 1233v213h195v-213h-195z" />
<glyph unicode="k" horiz-adv-x="1032" d="M166 0v1458h192v-840l140 13l270 391h219l-315 -475l323 -547h-219l-274 442l-144 -12v-430h-192z" />
<glyph unicode="l" horiz-adv-x="514" d="M160 0v1458h194v-1458h-194z" />
<glyph unicode="m" horiz-adv-x="1757" d="M166 0v1022h190v-61q104 59 219 73q42 7 80 7q15 0 29 -1q137 -6 209 -86q231 90 364 90q205 0 278 -112.5t73 -396.5v-535h-193v465q0 240 -32.5 319.5t-159.5 79.5q-53 0 -117 -15t-99.5 -29.5t-39.5 -18.5q20 -51 20 -271v-530h-192v526q0 197 -36 267.5t-157 70.5 q-49 0 -110.5 -15t-97.5 -31l-36 -15v-803h-192z" />
<glyph unicode="n" horiz-adv-x="1159" d="M166 0v1022h192v-66q156 88 295 88q207 0 280 -115.5t73 -393.5v-535h-195v539q0 186 -38 258.5t-159 72.5q-57 0 -121.5 -15t-99.5 -31l-35 -15v-809h-192z" />
<glyph unicode="o" horiz-adv-x="1081" d="M92 520q0 266 103.5 395t347.5 129q236 0 341 -131t105 -393q0 -274 -98 -408.5t-348 -134.5q-252 0 -351.5 132.5t-99.5 410.5zM289 520q0 -201 51 -283.5t203 -82.5q150 0 200 85t50 281q0 184 -57.5 267t-192.5 83q-145 0 -199.5 -78.5t-54.5 -271.5z" />
<glyph unicode="p" horiz-adv-x="1114" d="M166 -446v1468h192v-61q143 83 278 83h3q199 0 291 -121.5t92 -400.5q0 -303 -105.5 -424t-347.5 -121q-111 0 -211 23v-446h-192zM358 170q147 -16 199 -16q150 0 208 82.5t58 287.5q0 184 -54 264t-163 80q-49 0 -110.5 -16t-99.5 -34l-38 -17v-631z" />
<glyph unicode="q" horiz-adv-x="1099" d="M92 496q0 274 106.5 411t360.5 137l375 -22v-1468h-193v471q-92 -48 -221 -48q-227 0 -327.5 131.5t-100.5 387.5zM287 498q0 -172 55 -258t178 -86q49 0 104.5 13t86.5 27l30 13v655q-123 8 -182 8q-152 0 -212 -89t-60 -283z" />
<glyph unicode="r" horiz-adv-x="733" d="M166 0v1022h192v-121q145 109 334 146v-205q-84 -16 -167 -48t-125 -55l-42 -22v-717h-192z" />
<glyph unicode="s" horiz-adv-x="1005" d="M106 735q0 160 108 234.5t271 74.5q68 0 162 -10t156 -21l61 -12l-4 -163q-229 32 -354 32h-8q-98 0 -147.5 -29.5t-49.5 -101.5q0 -57 46 -82.5t188 -48.5q207 -33 284.5 -95t77.5 -210q0 -172 -103.5 -249t-299.5 -77q-61 0 -153.5 10.5t-155.5 21.5l-62 11l8 166 q235 -32 340 -32h6q121 0 173 31.5t52 111.5q0 63 -43 88t-182 47q-207 35 -289 94.5t-82 208.5z" />
<glyph unicode="t" horiz-adv-x="735" d="M47 848v174h137v307h193v-307h301v-174h-301v-447q0 -147 21.5 -194t105.5 -47l174 10l10 -168q-137 -25 -209 -25q-168 0 -231.5 80t-63.5 299v492h-137z" />
<glyph unicode="u" horiz-adv-x="1144" d="M150 489v533h194v-530q0 -201 34 -269.5t157 -68.5q51 0 113.5 15t100.5 31l37 15v807h195v-1022h-195v59q-160 -82 -286 -82q-211 0 -280.5 112t-69.5 400z" />
<glyph unicode="v" horiz-adv-x="987" d="M39 1022h201l221 -860h67l224 860h198l-276 -1022h-361z" />
<glyph unicode="w" horiz-adv-x="1544" d="M45 1022h193l180 -848h39l213 830h204l213 -830h39l181 848h192l-227 -1022h-320l-182 743l-182 -743h-318z" />
<glyph unicode="x" horiz-adv-x="948" d="M43 0l305 510l-305 512h209l221 -371l223 371h207l-305 -512l305 -510h-209l-221 371l-221 -371h-209z" />
<glyph unicode="y" horiz-adv-x="989" d="M39 1022h192l232 -836h61l234 836h192l-403 -1468h-191l121 446h-160z" />
<glyph unicode="z" horiz-adv-x="980" d="M111 0v174l526 676h-526v174h759v-174l-526 -676h526v-174h-759z" />
<glyph unicode="{" horiz-adv-x="649" d="M29 557v164q115 29 157.5 77t42.5 132q0 27 -7 123t-7 137q0 188 95.5 270t314.5 90l2 -188q-121 -8 -163 -48t-42 -136q0 -35 7 -130.5t7 -123.5q0 -125 -45 -185.5t-160 -97.5q113 -37 159 -102.5t46 -188.5q0 -33 -7 -118t-7 -121q0 -96 42 -138.5t163 -50.5l-2 -188 q-217 8 -313.5 91t-96.5 265q0 43 7 135t7 115q0 84 -44 134t-156 83z" />
<glyph unicode="|" d="M432 -332v1827h199v-1827h-199z" />
<glyph unicode="}" horiz-adv-x="649" d="M29 -78q123 8 163.5 50t40.5 139q0 41 -7 126.5t-7 112.5q0 123 46 188.5t159 102.5q-115 37 -160 97.5t-45 185.5q0 29 7 124t7 130q0 96 -40.5 136t-163.5 48l2 188q219 -8 314 -90t95 -270q0 -41 -7 -137.5t-7 -122.5q0 -84 43 -132t158 -77v-164q-113 -33 -157 -83 t-44 -134q0 -23 7 -115t7 -135q0 -182 -96 -265t-313 -91z" />
<glyph unicode="~" d="M127 678q12 12 34.5 30.5t85 48t120.5 29.5q59 0 194 -49t180 -49q35 0 85.5 22.5t82.5 46.5l33 23l16 -184q-12 -12 -32.5 -30.5t-79 -48.5t-113.5 -30q-61 0 -198.5 49.5t-178.5 49.5q-39 0 -92 -22.5t-86 -46.5l-33 -23z" />
<glyph unicode="&#xa1;" d="M451 -412l6 940h196l6 -940h-208zM451 752v270h208v-270h-208z" />
<glyph unicode="&#xa2;" horiz-adv-x="894" d="M63 510q0 422 367 444v232h166v-238l188 -20l-6 -170q-178 12 -256 12q-145 0 -202.5 -56.5t-57.5 -203.5q0 -150 56.5 -203t211.5 -53l250 12l6 -170q-106 -14 -190 -20v-238h-166v232q-188 10 -277.5 110.5t-89.5 329.5z" />
<glyph unicode="&#xa3;" d="M156 0v170h166v528h-136v170h136v131q0 225 86 309.5t247 84.5q45 0 112 -7.5t110 -14.5l43 -7v-166q-168 20 -261 21q-84 0 -115.5 -48.5t-31.5 -181.5v-121h338v-170h-338v-528h295l154 33l30 -166l-166 -35z" />
<glyph unicode="&#xa4;" d="M70 176l145 146q-51 90 -51 193t51 194l-145 147l133 133l145 -147q90 53 194.5 53t192.5 -53l148 147l133 -133l-148 -147q53 -90 53.5 -194.5t-53.5 -192.5l148 -146l-133 -133l-148 145q-88 -53 -193.5 -53t-193.5 53l-145 -145zM340 516q0 -86 59.5 -143.5 t143.5 -57.5t143 57.5t59 143.5t-59 143.5t-143 57.5t-143.5 -57.5t-59.5 -143.5z" />
<glyph unicode="&#xa5;" horiz-adv-x="1105" d="M14 1352h222l319 -512l315 512h224l-334 -557h248v-166h-342l-11 -39v-98h353v-166h-353v-326h-198v326h-359v166h359v98l-11 39h-348v166h252z" />
<glyph unicode="&#xa6;" d="M430 -332v807h199v-807h-199zM430 725v811h199v-811h-199z" />
<glyph unicode="&#xa7;" d="M127 494q0 76 42 153.5t81 108.5q-90 68 -90 227q0 342 409 342q61 0 147.5 -10t141.5 -21l55 -10l-8 -158q-225 29 -323 29q-127 0 -180.5 -39t-53.5 -131q0 -80 60.5 -112.5t228.5 -67.5q180 -37 250.5 -96.5t70.5 -202.5q0 -74 -29.5 -152t-62.5 -125q76 -63 76 -209 q0 -184 -99.5 -269t-307.5 -85q-59 0 -151.5 9.5t-154.5 19.5l-61 10l18 158q223 -29 336 -29q233 0 234 172q0 82 -56.5 110.5t-236.5 67.5q-182 37 -259 101.5t-77 208.5zM322 526q0 -80 42 -113.5t152 -54.5q131 -29 201 -57q12 16 29.5 71.5t17.5 106.5q0 78 -46 110.5 t-167 57.5q-150 33 -172 43q-14 -20 -35.5 -70.5t-21.5 -93.5z" />
<glyph unicode="&#xa8;" horiz-adv-x="505" d="M-37 1268v213h187v-213h-187zM385 1268v213h184v-213h-184z" />
<glyph unicode="&#xa9;" d="M18 887q0 231 149.5 390t375.5 159q229 0 376.5 -160t147.5 -387q0 -231 -147.5 -388t-378.5 -157q-221 0 -372 158t-151 385zM123 889q0 -184 118.5 -311t299.5 -127q182 0 303 127t121 311t-121 313t-301 129q-178 0 -299 -129t-121 -313zM295 895q0 156 58.5 232.5 t193.5 76.5q41 0 79 -3t56 -6l18 -3l-2 -158q-68 14 -151 15q-98 0 -98 -154q0 -166 98 -166l151 12v-151q-66 -16 -151 -17q-137 0 -194.5 77t-57.5 245z" />
<glyph unicode="&#xaa;" horiz-adv-x="1060" d="M283 954q0 143 153 156l209 14v47q0 66 -24.5 89.5t-81.5 23.5l-213 -14l-4 63q141 16 217 17q88 0 129 -42.5t41 -138.5v-274q12 -41 75 -47l-4 -57q-66 2 -110 45q-129 -45 -244 -45q-63 0 -103 45t-40 118zM350 950q0 -94 82 -94q41 0 94.5 8t85.5 18l33 9v174 l-199 -12q-51 -4 -73.5 -28t-22.5 -75z" />
<glyph unicode="&#xab;" horiz-adv-x="1257" d="M184 430v148l412 307v-199l-246 -178l246 -201v-201zM702 430v148l410 307v-199l-244 -178l244 -201v-201z" />
<glyph unicode="&#xac;" d="M115 537v188h854v-506h-189v318h-665z" />
<glyph unicode="&#xad;" horiz-adv-x="901" d="M135 481v189h631v-189h-631z" />
<glyph unicode="&#xae;" d="M-4 888.5q0 239.5 150.5 403.5t396 164t400.5 -164t155 -403q0 -236 -156 -401.5t-399 -165.5q-246 0 -396.5 163.5t-150.5 403zM98 889q0 -193 129 -330t315.5 -137t316.5 137t130 330q0 195 -130 331t-316 136q-188 0 -316.5 -135t-128.5 -332zM305 565v645h230 q125 0 186 -46t61 -152q0 -78 -21.5 -123t-74.5 -74l109 -250h-156l-92 232h-96v-232h-146zM449 909h100q92 0 92 95q0 92 -109 92h-83v-187z" />
<glyph unicode="&#xaf;" horiz-adv-x="505" d="M-47 1290v168h620v-168h-620z" />
<glyph unicode="&#xb0;" d="M205 1155q0 131 82 213t213 82t213 -82t82 -213t-81 -212t-214 -81t-214 81t-81 212zM324 1155q0 -80 48 -129t128 -49t130 49t50 129t-50 130t-130 50t-128 -50t-48 -130z" />
<glyph unicode="&#xb1;" d="M66 102v179h966v-179h-966zM66 639v178h389v258h180v-258h397v-178h-397v-254h-180v254h-389z" />
<glyph unicode="&#xb2;" horiz-adv-x="542" d="M41 979v139l170 158q100 88 100 149q0 59 -92 60l-168 -17l-6 150q131 20 221 20q113 0 162 -45t49 -147q0 -68 -28.5 -117t-92.5 -104l-108 -101h235v-145h-442z" />
<glyph unicode="&#xb3;" horiz-adv-x="542" d="M49 977l8 141q121 -16 201 -16q88 0 88 67.5t-82 67.5h-133v133h131q27 0 47.5 19.5t20.5 48.5q0 57 -82 57l-182 -14l-9 137q127 20 213 20q227 0 228 -174q0 -109 -76 -149q47 -16 68.5 -50t21.5 -106q0 -201 -227 -201q-45 0 -103.5 4.5t-95.5 9.5z" />
<glyph unicode="&#xb4;" horiz-adv-x="548" d="M31 1362l473 190l67 -180l-479 -172z" />
<glyph unicode="&#xb5;" d="M141 -475v1499h193v-565q2 -180 38 -242.5t154 -62.5q49 0 112.5 15t101.5 31l38 15v807h195v-1022h-195v59q-160 -82 -286 -82q-102 0 -158 46v-498h-193z" />
<glyph unicode="&#x3bc;" d="M141 -475v1499h193v-565q2 -180 38 -242.5t154 -62.5q49 0 112.5 15t101.5 31l38 15v807h195v-1022h-195v59q-160 -82 -286 -82q-102 0 -158 46v-498h-193z" />
<glyph unicode="&#xb6;" d="M16 1047q0 170 107.5 278.5t275.5 108.5h676v-154h-123v-1280h-170v1280h-200v-1280h-170v664h-15q-168 0 -274.5 106.5t-106.5 276.5z" />
<glyph unicode="&#xb7;" horiz-adv-x="507" d="M135 475v270h211v-270h-211z" />
<glyph unicode="&#xb8;" horiz-adv-x="1705" d="M772 -444l6 118q74 -4 123 -4q86 0 86 70q0 61 -86 61h-74v201h93v-94q125 -2 180 -36t55 -132q0 -201 -203 -201q-39 0 -84 4t-70 8z" />
<glyph unicode="&#xb9;" horiz-adv-x="542" d="M51 1470l211 148h148v-639h-160v463l-125 -84z" />
<glyph unicode="&#xba;" horiz-adv-x="1077" d="M295 1073q-1 277 235 277q119 0 175.5 -66.5t56.5 -210.5q0 -283 -232 -282q-236 0 -235 282zM365 1073q0 -117 38.5 -167t126.5 -50t125 50t37 167t-37 164t-125 47t-126.5 -48t-38.5 -163z" />
<glyph unicode="&#xbb;" horiz-adv-x="1257" d="M145 106v201l244 201l-244 178v199l410 -307v-148zM662 106v201l245 201l-245 178v199l411 -307v-148z" />
<glyph unicode="&#xbf;" horiz-adv-x="790" d="M14 -63q0 98 39 180t95.5 133t112.5 95t95 91t39 94v78h205v-84q0 -74 -39 -136t-93 -107t-109.5 -90.5t-94.5 -103.5t-39 -128q0 -106 51.5 -150.5t186.5 -44.5q45 0 123 11.5t134 22.5l56 12l25 -189q-236 -57 -346 -57q-229 0 -335 85t-106 288zM393 752v270h209v-270 h-209z" />
<glyph unicode="&#xc0;" horiz-adv-x="1236" d="M57 0l365 1421h407l361 -1419h-201l-92 317h-553l-88 -319h-199zM319 1747l66 182l473 -192l-61 -160zM387 510h469l-182 727h-101z" />
<glyph unicode="&#xc1;" horiz-adv-x="1236" d="M57 0l365 1421h407l361 -1419h-201l-92 317h-553l-88 -319h-199zM354 1772l473 190l68 -180l-479 -172zM387 510h469l-182 727h-101z" />
<glyph unicode="&#xc2;" horiz-adv-x="1236" d="M57 0l365 1421h407l361 -1419h-201l-92 317h-553l-88 -319h-199zM281 1614l260 319h155l262 -319h-210l-127 158l-129 -158h-211zM387 510h469l-182 727h-101z" />
<glyph unicode="&#xc3;" horiz-adv-x="1239" d="M53 0l365 1421h407l361 -1419h-201l-92 317h-553l-88 -319h-199zM227 1794q12 14 34 34.5t76 55.5t95 35q61 0 186 -52t150 -52q20 0 60 22.5t70 44.5l30 23l45 -150q-12 -14 -32.5 -34.5t-74 -54.5t-94.5 -34q-53 0 -180 53.5t-158 53.5q-23 0 -63.5 -23.5t-70.5 -47.5 l-30 -23zM383 510h469l-182 727h-101z" />
<glyph unicode="&#xc4;" horiz-adv-x="1236" d="M57 0l365 1421h409l359 -1419h-199l-94 317h-553l-86 -319h-201zM356 1677v213h187v-213h-187zM387 510h471l-184 727h-101zM778 1677v213h187v-213h-187z" />
<glyph unicode="&#xc5;" horiz-adv-x="1236" d="M57 0l351 1368q-45 57 -46 139q0 109 74 170.5t188.5 61.5t189.5 -63t75 -169q0 -82 -47 -139l348 -1366h-201l-92 317h-553l-88 -319h-199zM387 510h469l-182 727h-101zM516 1507q0 -70 72 -86h76q72 16 71 86q0 43 -29.5 67.5t-81 24.5t-80 -24.5t-28.5 -67.5z" />
<glyph unicode="&#xc6;" horiz-adv-x="1839" d="M88 0l432 1421h1231v-190h-678v-412h555v-188h-555v-441h678v-190h-874v319h-488l-98 -319h-203zM440 510h437l2 721h-217z" />
<glyph unicode="&#xc7;" horiz-adv-x="1099" d="M96 709q0 389 113 562t412 173q82 0 180 -13.5t156 -25.5l59 -12l-6 -179q-231 35 -365 35q-205 0 -273.5 -119.5t-68.5 -420.5q0 -299 67.5 -418t278.5 -119q53 0 143.5 8t153.5 18l64 9l6 -180q-217 -45 -377 -50v-69q125 -2 180 -36t55 -132q0 -201 -202 -201 q-39 0 -84 4t-71 8l-25 5l6 118q74 -4 123 -4q86 0 86 70q0 61 -86 61h-74v181q-260 18 -355.5 192t-95.5 535z" />
<glyph unicode="&#xc8;" horiz-adv-x="1148" d="M170 0v1421h874v-190h-677v-426h555v-187h-555v-428h677v-190h-874zM332 1747l65 182l473 -192l-61 -160z" />
<glyph unicode="&#xc9;" horiz-adv-x="1171" d="M176 0v1421h875v-190h-678v-426h555v-187h-555v-428h678v-190h-875zM362 1772l474 190l67 -180l-479 -172z" />
<glyph unicode="&#xca;" horiz-adv-x="1171" d="M176 0v1421h875v-190h-678v-426h555v-187h-555v-428h678v-190h-875zM293 1614l260 319h156l262 -319h-211l-127 158l-129 -158h-211z" />
<glyph unicode="&#xcb;" horiz-adv-x="1171" d="M176 0v1421h875v-190h-678v-426h555v-187h-555v-428h678v-190h-875zM326 1677v213h186v-213h-186zM748 1677v213h184v-213h-184z" />
<glyph unicode="&#xcc;" horiz-adv-x="526" d="M-57 1747l65 182l473 -192l-61 -160zM164 0v1421h198v-1421h-198z" />
<glyph unicode="&#xcd;" horiz-adv-x="526" d="M10 1751l473 191l68 -181l-479 -172zM164 0v1421h198v-1421h-198z" />
<glyph unicode="&#xce;" horiz-adv-x="526" d="M-94 1628l270 285h176l271 -285h-222l-135 131l-135 -131h-225zM164 0v1421h198v-1421h-198z" />
<glyph unicode="&#xcf;" horiz-adv-x="526" d="M-43 1663v213h184v-213h-184zM164 0v1421h198v-1421h-198zM389 1663v213h186v-213h-186z" />
<glyph unicode="&#xd0;" horiz-adv-x="1304" d="M41 608v191h129v622h492q309 0 427.5 -171t118.5 -515q0 -174 -23.5 -299t-82 -228.5t-169 -155.5t-271.5 -52h-492v608h-129zM367 188h295q104 0 174.5 42t105.5 122t48.5 170t13.5 213q0 248 -71 373t-271 125h-295v-434h297v-191h-297v-420z" />
<glyph unicode="&#xd1;" horiz-adv-x="1406" d="M158 0v1421h336l507 -1179h39v1179h201v-1421h-328l-518 1180h-39v-1180h-198zM342 1804q12 12 32.5 31.5t73 52.5t93.5 33q59 0 167.5 -48t133.5 -48q20 0 58 20.5t66 40.5l27 21l43 -150q-10 -12 -29.5 -30.5t-70.5 -50t-92 -31.5q-51 0 -162 49t-141 49 q-23 0 -62 -21.5t-66 -43.5l-28 -21z" />
<glyph unicode="&#xd2;" horiz-adv-x="1343" d="M106 702.5q0 374.5 126 558t440 183.5q315 0 441 -183.5t126 -558.5q0 -379 -124 -552t-443 -173q-315 0 -440.5 175.5t-125.5 550zM311 702.5q0 -284.5 75 -408.5t286 -124q213 0 286.5 122t73.5 410q0 285 -75.5 417t-284.5 132t-285 -132t-76 -416.5zM381 1747l65 182 l474 -192l-62 -160z" />
<glyph unicode="&#xd3;" horiz-adv-x="1343" d="M106 702.5q0 374.5 126 558t440 183.5q315 0 441 -183.5t126 -558.5q0 -379 -124 -552t-443 -173q-315 0 -440.5 175.5t-125.5 550zM311 702.5q0 -284.5 75 -408.5t286 -124q213 0 286.5 122t73.5 410q0 285 -75.5 417t-284.5 132t-285 -132t-76 -416.5zM383 1772 l473 190l68 -180l-480 -172z" />
<glyph unicode="&#xd4;" horiz-adv-x="1343" d="M106 702.5q0 374.5 126 558t440 183.5q315 0 441 -183.5t126 -558.5q0 -379 -124 -552t-443 -173q-315 0 -440.5 175.5t-125.5 550zM311 702.5q0 -284.5 75 -408.5t286 -124q213 0 286.5 122t73.5 410q0 285 -75.5 417t-284.5 132t-285 -132t-76 -416.5zM330 1614 l260 319h155l263 -319h-211l-127 158l-129 -158h-211z" />
<glyph unicode="&#xd5;" horiz-adv-x="1343" d="M106 702.5q0 374.5 126 558t440 183.5q315 0 440 -183.5t125 -558.5q0 -379 -124 -552t-441.5 -173t-441.5 175.5t-124 550zM311 702.5q0 -284.5 75 -408.5t286 -124q213 0 286.5 122t73.5 410q0 283 -76.5 416t-283.5 133q-209 0 -285 -132t-76 -416.5zM313 1804 q12 12 33 31.5t73 52.5t93 33q59 0 167.5 -48t133.5 -48q20 0 58 20.5t66 40.5l28 21l43 -150q-10 -12 -30 -30.5t-71 -50t-92 -31.5q-51 0 -161.5 49t-141.5 49q-23 0 -61.5 -21.5t-66.5 -43.5l-28 -21z" />
<glyph unicode="&#xd6;" horiz-adv-x="1343" d="M106 702.5q0 374.5 126 558t440 183.5q315 0 440 -183.5t125 -558.5q0 -379 -124 -552t-441.5 -173t-441.5 175.5t-124 550zM311 702.5q0 -284.5 75 -408.5t286 -124q213 0 286.5 122t73.5 410q0 283 -76.5 416t-283.5 133q-209 0 -285 -132t-76 -416.5zM360 1677v213 h187v-213h-187zM780 1677v213h187v-213h-187z" />
<glyph unicode="&#xd7;" horiz-adv-x="1333" d="M360 184l377 387l-377 383l129 127l373 -385l375 385l129 -127l-377 -383l379 -387l-129 -125l-377 383l-375 -383z" />
<glyph unicode="&#xd8;" horiz-adv-x="1329" d="M98 702q0 375 126 558.5t440 183.5q139 0 241 -37l113 242l156 -66l-123 -262q180 -166 180 -619q0 -379 -124 -552t-443 -173q-129 0 -228 29l-119 -254l-151 76l121 258q-102 82 -145.5 233.5t-43.5 382.5zM303 702q0 -299 78 -413l438 936q-70 27 -155 26 q-209 0 -285 -132t-76 -417zM520 188q62 -18 144 -18q213 0 286.5 122t73.5 410q0 281 -72 408z" />
<glyph unicode="&#xd9;" horiz-adv-x="1310" d="M147 442v979h199v-979q0 -145 79 -205.5t226 -60.5q152 0 232 61.5t80 204.5v979h200v-979q0 -244 -128 -352t-384 -108q-250 0 -377 109.5t-127 350.5zM182 1747l66 182l473 -192l-62 -160z" />
<glyph unicode="&#xda;" horiz-adv-x="1314" d="M154 442v979h198v-979q0 -145 79 -205.5t226 -60.5q152 0 232 61.5t80 204.5v979h200v-979q0 -244 -128 -352t-384 -108q-250 0 -376.5 109.5t-126.5 350.5zM375 1772l473 190l67 -180l-479 -172z" />
<glyph unicode="&#xdb;" horiz-adv-x="1314" d="M154 442v979h198v-979q0 -145 79 -205.5t226 -60.5q152 0 232 61.5t80 204.5v979h200v-979q0 -244 -128 -352t-384 -108q-250 0 -376.5 109.5t-126.5 350.5zM322 1614l260 319h155l262 -319h-211l-126 158l-130 -158h-210z" />
<glyph unicode="&#xdc;" horiz-adv-x="1314" d="M154 442v979h198v-979q0 -145 79 -205.5t226 -60.5q152 0 232 61.5t80 204.5v979h200v-979q0 -244 -128 -352t-384 -108q-250 0 -376.5 109.5t-126.5 350.5zM401 1677v213h187v-213h-187zM823 1677v213h185v-213h-185z" />
<glyph unicode="&#xdd;" horiz-adv-x="1105" d="M14 1421h222l319 -590l315 590h224l-439 -813v-608h-198v608zM246 1772l473 190l67 -180l-479 -172z" />
<glyph unicode="&#xde;" horiz-adv-x="1155" d="M111 0v1421h200v-221h316q471 0 471 -465q0 -242 -119 -373t-352 -131h-316v-231h-200zM311 424h316q266 0 266 311q0 141 -64.5 209t-201.5 68h-316v-588z" />
<glyph unicode="&#xdf;" horiz-adv-x="1253" d="M166 0v1102q0 205 101.5 291t322.5 86q227 0 324.5 -70t97.5 -231q0 -104 -41 -165t-127 -98q-82 -35 -105.5 -52t-23.5 -44q0 -29 31.5 -54.5t152.5 -86.5q156 -82 209 -133t53 -146q0 -238 -104.5 -327.5t-382.5 -89.5q-33 0 -85 8t-88 16l-36 8l8 156q166 -8 201 -8 q168 0 227.5 48t59.5 165q0 35 -42 68.5t-169 93.5q-139 68 -187.5 123t-48.5 141q0 82 39 129t127 84q80 35 105.5 67.5t25.5 83.5q0 76 -50 105.5t-171 29.5q-119 0 -175.5 -46t-56.5 -167v-1087h-192z" />
<glyph unicode="&#xe0;" horiz-adv-x="1083" d="M72 299q0 152 79.5 222.5t247.5 82.5l287 27v76q0 166 -162 165q-63 0 -159.5 -6t-160.5 -12l-65 -6l-8 147q248 49 414 49q336 1 336 -337v-486q6 -80 102 -92l-8 -149q-172 0 -260 75q-172 -78 -346 -78q-145 0 -221 82t-76 240zM215 1380l64 172l473 -192l-58 -152z M268 303q0 -164 138 -164q53 0 122.5 12.5t113.5 25.5l44 13v302l-264 -27q-154 -14 -154 -162z" />
<glyph unicode="&#xe1;" horiz-adv-x="1083" d="M72 299q0 152 79.5 222.5t247.5 82.5l287 27v76q0 166 -162 165q-63 0 -159.5 -6t-160.5 -12l-65 -6l-8 147q248 49 414 49q336 1 336 -337v-486q6 -80 102 -92l-8 -149q-172 0 -260 75q-172 -78 -346 -78q-145 0 -221 82t-76 240zM221 1362l473 190l68 -180l-479 -172z M268 303q0 -164 138 -164q53 0 122.5 12.5t113.5 25.5l44 13v302l-264 -27q-154 -14 -154 -162z" />
<glyph unicode="&#xe2;" horiz-adv-x="1083" d="M72 299q0 152 79.5 222.5t247.5 82.5l287 27v76q0 166 -162 165q-63 0 -159.5 -6t-160.5 -12l-65 -6l-8 147q248 49 414 49q336 1 336 -337v-486q6 -80 102 -92l-8 -149q-172 0 -260 75q-172 -78 -346 -78q-145 0 -221 82t-76 240zM160 1204l260 320h155l263 -320h-211 l-127 158l-129 -158h-211zM268 303q0 -164 138 -164q53 0 122.5 12.5t113.5 25.5l44 13v302l-264 -27q-154 -14 -154 -162z" />
<glyph unicode="&#xe3;" horiz-adv-x="1083" d="M72 299q0 152 78.5 222.5t246.5 84.5l289 25v74q0 156 -151 155q-68 0 -166.5 -6t-162.5 -12l-65 -6l-8 168q256 41 410 40q170 0 253 -79.5t83 -257.5v-463q2 -49 26.5 -70.5t75.5 -28.5l-8 -165q-102 0 -157.5 16t-100.5 57q-180 -76 -357 -76q-139 0 -212.5 84 t-73.5 238zM143 1395q12 12 33 31.5t73 52t93 32.5q59 0 167.5 -48t133.5 -48q20 0 58 20.5t66 41.5l28 20l43 -149q-10 -12 -30 -31t-71 -50.5t-92 -31.5q-51 0 -161.5 49t-141.5 49q-23 0 -61.5 -21.5t-66.5 -42.5l-28 -22zM266 303q0 -158 125 -158q59 0 133 13.5 t118 25.5l44 13v282l-264 -20q-156 -12 -156 -156z" />
<glyph unicode="&#xe4;" horiz-adv-x="1083" d="M72 299q0 152 78.5 222.5t246.5 84.5l289 25v74q0 156 -151 155q-68 0 -166.5 -6t-162.5 -12l-65 -6l-8 168q256 41 410 40q170 0 253 -79.5t83 -257.5v-463q2 -49 26.5 -70.5t75.5 -28.5l-8 -165q-102 0 -157.5 16t-100.5 57q-180 -76 -357 -76q-139 0 -212.5 84 t-73.5 238zM209 1268v213h186v-213h-186zM266 303q0 -158 125 -158q59 0 133 13.5t118 25.5l44 13v282l-264 -20q-156 -12 -156 -156zM631 1268v213h184v-213h-184z" />
<glyph unicode="&#xe5;" horiz-adv-x="1083" d="M72 299q0 152 79.5 222.5t247.5 82.5l287 27v76q0 166 -162 165q-63 0 -159.5 -6t-160.5 -12l-65 -6l-8 147q248 49 414 49q336 1 336 -337v-486q6 -80 102 -92l-8 -149q-172 0 -260 75q-172 -78 -346 -78q-145 0 -221 82t-76 240zM268 303q0 -164 138 -164 q53 0 122.5 12.5t113.5 25.5l44 13v302l-264 -27q-154 -14 -154 -162zM303 1317q0 92 64.5 156.5t158.5 64.5q92 0 157 -64.5t65 -156.5q0 -94 -65 -157.5t-157 -63.5q-96 0 -159.5 63.5t-63.5 157.5zM438 1317q0 -39 25.5 -64.5t64.5 -25.5q35 0 60.5 25.5t25.5 64.5 q0 37 -25.5 62.5t-60.5 25.5q-39 0 -64.5 -25.5t-25.5 -62.5z" />
<glyph unicode="&#xe6;" horiz-adv-x="1695" d="M109 299q0 164 86 229.5t280 81.5l250 21v74q0 76 -41 115.5t-113 39.5q-68 0 -165 -5t-161 -10l-65 -5l-8 170q254 35 410 34q201 0 272 -122q102 123 305 122q213 0 317.5 -114.5t104.5 -358.5l-12 -141h-651q2 -141 58 -207.5t189 -66.5q72 0 166 4t153 9l58 5l4 -154 q-233 -43 -407 -43q-203 0 -305 107l-60 -27q-178 -80 -379 -80q-139 0 -212.5 84t-73.5 238zM305 303q0 -158 125 -158q111 0 318 60q-27 100 -27 274l-260 -20q-80 -6 -118 -43t-38 -113zM918 582h471q0 158 -53.5 224t-176.5 66t-182 -69t-59 -221z" />
<glyph unicode="&#xe7;" horiz-adv-x="892" d="M92 526q0 279 99.5 398.5t328.5 119.5q45 0 119 -8t125 -16l51 -8l-8 -168q-162 18 -240 18q-164 0 -221 -72.5t-57 -263.5q0 -211 54 -287.5t226 -76.5l240 16l6 -168q-170 -29 -274 -33v-69q125 -2 180 -36t55 -132q0 -201 -203 -201q-39 0 -84 4t-70 8l-26 5l6 118 q74 -4 123 -4q86 0 86 70q0 61 -86 61h-73v181q-199 14 -278 139t-79 405z" />
<glyph unicode="&#xe8;" horiz-adv-x="1026" d="M90 504q0 541 436 540q215 0 319.5 -114.5t104.5 -358.5l-12 -141h-651q0 -141 57.5 -207.5t190.5 -66.5q70 0 164 4t153 9l59 5l4 -154q-233 -43 -407 -43q-225 2 -321.5 128t-96.5 399zM205 1356l63 172l473 -193l-57 -151zM285 582h473q0 158 -53.5 224t-178.5 66 q-121 0 -180 -68t-61 -222z" />
<glyph unicode="&#xe9;" horiz-adv-x="1026" d="M90 504q0 541 436 540q215 0 319.5 -114.5t104.5 -358.5l-12 -141h-651q0 -141 57.5 -207.5t190.5 -66.5q70 0 164 4t153 9l59 5l4 -154q-233 -43 -407 -43q-225 2 -321.5 128t-96.5 399zM279 1362l473 190l67 -180l-479 -172zM285 582h473q0 158 -53.5 224t-178.5 66 q-121 0 -180 -68t-61 -222z" />
<glyph unicode="&#xea;" horiz-adv-x="1026" d="M90 504q0 541 436 540q215 0 319.5 -114.5t104.5 -358.5l-12 -141h-651q0 -141 57.5 -207.5t190.5 -66.5q70 0 164 4t153 9l59 5l4 -154q-233 -43 -407 -43q-225 2 -321.5 128t-96.5 399zM201 1204l260 320h155l263 -320h-211l-127 158l-129 -158h-211zM285 582h473 q0 158 -53.5 224t-178.5 66q-121 0 -180 -68t-61 -222z" />
<glyph unicode="&#xeb;" horiz-adv-x="1026" d="M90 504q0 541 436 540q215 0 319.5 -114.5t104.5 -358.5l-12 -141h-651q0 -141 56.5 -207.5t191.5 -66.5q70 0 164 4t153 9l59 5l4 -154q-233 -43 -407 -43q-225 2 -321.5 128t-96.5 399zM221 1268v213h185v-213h-185zM285 582h473q0 158 -53.5 224t-178.5 66 q-121 0 -180 -68t-61 -222zM641 1268v213h186v-213h-186z" />
<glyph unicode="&#xec;" horiz-adv-x="534" d="M-12 1380l63 172l473 -192l-57 -152zM174 0v1022h195v-1022h-195z" />
<glyph unicode="&#xed;" horiz-adv-x="534" d="M45 1362l473 190l68 -180l-480 -172zM174 0v1022h195v-1022h-195z" />
<glyph unicode="&#xee;" horiz-adv-x="542" d="M-76 1204l260 320h156l262 -320h-211l-127 158l-129 -158h-211zM174 0v1022h195v-1022h-195z" />
<glyph unicode="&#xef;" horiz-adv-x="534" d="M-41 1268v213h186v-213h-186zM174 0v1022h195v-1022h-195zM381 1268v213h186v-213h-186z" />
<glyph unicode="&#xf0;" d="M70 463q0 193 118.5 308.5t315.5 115.5q66 0 144.5 -16.5t123.5 -32.5l45 -17q-10 125 -74.5 214t-207.5 157l-218 -162l-84 115l144 104q-82 25 -205 51l33 166q195 -31 346 -86l201 148l82 -115l-136 -100q326 -184 326 -596q0 -389 -114.5 -562t-374.5 -173 q-223 0 -344 123.5t-121 357.5zM276 463q0 -143 65 -222t194 -79q147 0 213.5 111.5t68.5 375.5q-154 66 -301 66q-111 0 -175.5 -72t-64.5 -180z" />
<glyph unicode="&#xf1;" horiz-adv-x="1175" d="M178 0v1022h193v-59q168 82 295 81q207 0 279.5 -115.5t72.5 -393.5v-535h-195v532q0 186 -36.5 259t-153.5 73q-51 0 -116.5 -15t-105.5 -31l-40 -15v-803h-193zM252 1395q12 12 32.5 31.5t73 52t93.5 32.5q59 0 167.5 -48t133.5 -48q20 0 58 20.5t66 41.5l27 20 l43 -149q-10 -12 -29.5 -31t-70.5 -50.5t-92 -31.5q-51 0 -162 49t-141 49q-23 0 -62 -21.5t-66 -42.5l-28 -22z" />
<glyph unicode="&#xf2;" horiz-adv-x="1081" d="M92 520q0 266 103.5 395t347.5 129q236 0 341 -131t105 -393q0 -274 -98 -408.5t-348 -134.5q-252 0 -351.5 132.5t-99.5 410.5zM272 1380l64 172l473 -192l-57 -152zM289 520q0 -201 51 -283.5t203 -82.5q150 0 200 85t50 281q0 184 -57.5 267t-192.5 83 q-145 0 -199.5 -78.5t-54.5 -271.5z" />
<glyph unicode="&#xf3;" horiz-adv-x="1081" d="M92 520q0 266 103.5 395t347.5 129q236 0 341 -131t105 -393q0 -274 -98 -408.5t-348 -134.5q-252 0 -351.5 132.5t-99.5 410.5zM262 1362l473 190l68 -180l-479 -172zM289 520q0 -201 51 -283.5t203 -82.5q150 0 200 85t50 281q0 184 -57.5 267t-192.5 83 q-145 0 -199.5 -78.5t-54.5 -271.5z" />
<glyph unicode="&#xf4;" horiz-adv-x="1081" d="M92 520q0 266 103.5 395t347.5 129q236 0 341 -131t105 -393q0 -274 -98 -408.5t-348 -134.5q-252 0 -351.5 132.5t-99.5 410.5zM195 1204l260 320h155l262 -320h-210l-127 158l-129 -158h-211zM289 520q0 -201 51 -283.5t203 -82.5q150 0 200 85t50 281q0 184 -57.5 267 t-192.5 83q-145 0 -199.5 -78.5t-54.5 -271.5z" />
<glyph unicode="&#xf5;" horiz-adv-x="1081" d="M92 520q0 266 103.5 395t347.5 129q236 0 341 -131t105 -393q0 -274 -98 -408.5t-348 -134.5q-252 0 -351.5 132.5t-99.5 410.5zM188 1395q12 12 33 31.5t73 52t93 32.5q59 0 168 -48t133 -48q20 0 58 20.5t66 41.5l28 20l43 -149q-10 -12 -29.5 -31t-71 -50.5 t-92.5 -31.5q-51 0 -161.5 49t-141.5 49q-23 0 -61.5 -21.5t-66.5 -42.5l-28 -22zM289 520q0 -201 51 -283.5t203 -82.5q150 0 200 85t50 281q0 184 -57.5 267t-192.5 83q-145 0 -199.5 -78.5t-54.5 -271.5z" />
<glyph unicode="&#xf6;" horiz-adv-x="1081" d="M92 520q0 266 103.5 395t347.5 129q236 0 341 -131t105 -393q0 -274 -98 -408.5t-348 -134.5q-252 0 -351.5 132.5t-99.5 410.5zM233 1268v213h185v-213h-185zM289 520q0 -201 51 -283.5t203 -82.5q150 0 200 85t50 281q0 184 -57.5 267t-192.5 83q-145 0 -199.5 -78.5 t-54.5 -271.5zM653 1268v213h187v-213h-187z" />
<glyph unicode="&#xf7;" d="M160 678v215h114v65h437v-65h104v-215h-655zM395 170v227h195v-227h-195z" />
<glyph unicode="&#xf8;" horiz-adv-x="1081" d="M92 520q0 266 103.5 395t347.5 129q80 0 137 -14l86 211l123 -45l-86 -213q186 -113 186 -463q0 -274 -98 -408.5t-348 -134.5q-72 0 -148 15l-88 -217l-123 45l90 217q-182 109 -182 483zM289 520q0 -229 67 -305l258 647q-26 8 -71 8q-145 0 -199.5 -78.5t-54.5 -271.5 zM461 160q37 -6 82 -6q150 0 200 85t50 281q0 201 -70 283z" />
<glyph unicode="&#xf9;" horiz-adv-x="1144" d="M150 489v533h194v-530q0 -201 34 -269.5t157 -68.5q51 0 113.5 15t100.5 31l37 15v807h195v-1022h-195v59q-160 -82 -286 -82q-211 0 -280.5 112t-69.5 400zM227 1370l72 180l471 -190l-70 -172z" />
<glyph unicode="&#xfa;" horiz-adv-x="1144" d="M150 489v533h194v-530q0 -201 34 -269.5t157 -68.5q51 0 113.5 15t100.5 31l37 15v807h195v-1022h-195v59q-160 -82 -286 -82q-211 0 -280.5 112t-69.5 400zM291 1362l473 190l67 -180l-479 -172z" />
<glyph unicode="&#xfb;" horiz-adv-x="1144" d="M150 489v533h194v-530q0 -201 34 -269.5t157 -68.5q51 0 113.5 15t100.5 31l37 15v807h195v-1022h-195v59q-160 -82 -286 -82q-211 0 -280.5 112t-69.5 400zM197 1204l260 320h155l262 -320h-210l-127 158l-129 -158h-211z" />
<glyph unicode="&#xfc;" horiz-adv-x="1144" d="M150 489v533h194v-530q0 -201 34 -269.5t157 -68.5q51 0 113.5 15t100.5 31l37 15v807h195v-1022h-195v59q-160 -82 -286 -82q-211 0 -280.5 112t-69.5 400zM274 1268v213h187v-213h-187zM696 1268v213h185v-213h-185z" />
<glyph unicode="&#xfd;" horiz-adv-x="983" d="M25 1022h192l232 -836h61l233 836h193l-404 -1468h-190l121 446h-160zM256 1362l473 190l68 -180l-480 -172z" />
<glyph unicode="&#xfe;" horiz-adv-x="1101" d="M205 -446v1904h194v-475q146 61 273 61q209 0 298 -117.5t89 -400.5q0 -311 -107.5 -430t-384.5 -119q-29 0 -90 4.5t-78 4.5v-432h-194zM399 164q119 -10 166 -10q180 0 238.5 82.5t58.5 289.5q0 184 -48 262t-165 78q-49 0 -111.5 -11t-100.5 -21l-38 -11v-659z" />
<glyph unicode="&#xff;" horiz-adv-x="989" d="M39 1022h192l232 -836h61l234 836h192l-403 -1468h-191l121 446h-160zM195 1268v213h186v-213h-186zM616 1268v213h185v-213h-185z" />
<glyph unicode="&#x152;" horiz-adv-x="1933" d="M123 707q0 391 118.5 564t420.5 173q133 0 272 -23h866v-192h-670v-410h547v-190h-547v-436h670v-193h-862q-150 -23 -276 -23q-311 0 -425 172.5t-114 557.5zM328 709q0 -301 72.5 -419t291.5 -118q55 0 242 16v1043q-215 18 -248 18q-209 0 -283.5 -118.5t-74.5 -421.5 z" />
<glyph unicode="&#x153;" horiz-adv-x="1794" d="M121 520q0 266 103.5 395t346.5 129q250 0 351 -163q100 164 335 163q215 0 319.5 -114.5t104.5 -358.5l-12 -141h-651q0 -141 56.5 -207.5t191.5 -66.5q70 0 164 4t153 9l59 5l5 -154q-233 -43 -408 -43q-229 0 -326 148q-98 -147 -342 -148q-252 0 -351 132.5 t-99 410.5zM317 520q0 -201 51 -283.5t203 -82.5q150 0 200 85t50 281q0 184 -57 267t-193 83q-145 0 -199.5 -78.5t-54.5 -271.5zM1016 582h473q0 158 -53.5 224t-178.5 66q-121 0 -181 -69t-60 -221z" />
<glyph unicode="&#x178;" horiz-adv-x="1144" d="M33 1421h221l319 -590l316 590h223l-438 -813v-608h-199v608zM264 1663v213h185v-213h-185zM696 1663v213h187v-213h-187z" />
<glyph unicode="&#x2c6;" horiz-adv-x="505" d="M-63 1204l260 320h155l262 -320h-211l-127 158l-129 -158h-210z" />
<glyph unicode="&#x2dc;" horiz-adv-x="505" d="M-72 1395q12 12 33 31.5t73 52t93 32.5q59 0 167.5 -48t133.5 -48q20 0 58 20.5t66 41.5l28 20l43 -149q-10 -12 -30 -31t-70 -50.5t-91 -31.5q-53 0 -163.5 49t-141.5 49q-23 0 -61.5 -21.5t-66.5 -42.5l-28 -22z" />
<glyph unicode="&#x2000;" horiz-adv-x="981" />
<glyph unicode="&#x2001;" horiz-adv-x="1962" />
<glyph unicode="&#x2002;" horiz-adv-x="981" />
<glyph unicode="&#x2003;" horiz-adv-x="1962" />
<glyph unicode="&#x2004;" horiz-adv-x="654" />
<glyph unicode="&#x2005;" horiz-adv-x="490" />
<glyph unicode="&#x2006;" horiz-adv-x="327" />
<glyph unicode="&#x2007;" horiz-adv-x="327" />
<glyph unicode="&#x2008;" horiz-adv-x="245" />
<glyph unicode="&#x2009;" horiz-adv-x="392" />
<glyph unicode="&#x200a;" horiz-adv-x="109" />
<glyph unicode="&#x2010;" horiz-adv-x="901" d="M135 481v189h631v-189h-631z" />
<glyph unicode="&#x2011;" horiz-adv-x="901" d="M135 481v189h631v-189h-631z" />
<glyph unicode="&#x2012;" horiz-adv-x="901" d="M135 481v189h631v-189h-631z" />
<glyph unicode="&#x2013;" horiz-adv-x="1024" d="M0 469v176h1024v-176h-1024z" />
<glyph unicode="&#x2014;" horiz-adv-x="2048" d="M0 469v176h2048v-176h-2048z" />
<glyph unicode="&#x2018;" horiz-adv-x="348" d="M2 1022l111 467h184l-94 -467h-201z" />
<glyph unicode="&#x2019;" horiz-adv-x="348" d="M49 1079l94 467h201l-111 -467h-184z" />
<glyph unicode="&#x201a;" horiz-adv-x="413" d="M33 -229l110 467h185l-95 -467h-200z" />
<glyph unicode="&#x201c;" horiz-adv-x="792" d="M80 1022l110 467h185l-94 -467h-201zM403 1022l111 467h184l-94 -467h-201z" />
<glyph unicode="&#x201d;" horiz-adv-x="890" d="M156 1016l94 467h201l-111 -467h-184zM487 1016l95 467h200l-110 -467h-185z" />
<glyph unicode="&#x201e;" horiz-adv-x="817" d="M57 -229l95 467h200l-110 -467h-185zM389 -229l94 467h201l-111 -467h-184z" />
<glyph unicode="&#x2022;" d="M293 213v582h500v-582h-500z" />
<glyph unicode="&#x2026;" horiz-adv-x="1523" d="M154 0v270h211v-270h-211zM676 0v270h209v-270h-209zM1196 0v270h211v-270h-211z" />
<glyph unicode="&#x202f;" horiz-adv-x="392" />
<glyph unicode="&#x2039;" horiz-adv-x="700" d="M129 430v148l412 307v-199l-246 -178l246 -201v-201z" />
<glyph unicode="&#x203a;" horiz-adv-x="700" d="M160 119v200l243 201l-243 178v199l411 -307v-148z" />
<glyph unicode="&#x205f;" horiz-adv-x="490" />
<glyph unicode="&#x20ac;" horiz-adv-x="1163" d="M88 434v156h115v172h-115v156h125q29 246 141.5 354t360.5 108q82 0 172 -10t140 -19l50 -10l-8 -178q-199 23 -330 23q-158 0 -227.5 -61.5t-89.5 -209.5h512v-153h-524q-2 -27 -2 -86.5t2 -85.5h524v-156h-512q20 -141 91 -201.5t230 -60.5q53 0 134 6t137 11l55 6 l6 -181q-199 -37 -360 -37q-254 0 -364.5 108t-137.5 349h-125z" />
<glyph unicode="&#x2122;" d="M14 1178v122h410v-122h-119v-498h-135v498h-156zM483 678v622h168l119 -393l127 393h166v-622h-127v426l-115 -391h-96l-115 391v-426h-127z" />
<glyph unicode="&#xe000;" horiz-adv-x="1020" d="M0 1020h1020v-1020h-1020v1020z" />
<glyph unicode="&#xfb01;" horiz-adv-x="1195" d="M846 0v1022h194v-1022h-194zM846 1221v215h194v-215h-194zM49 848v174h123v80q0 217 62.5 297t222.5 80l215 -19l-2 -160q-106 4 -170 5q-78 0 -105.5 -43t-27.5 -162v-78h280v-174h-280v-848h-195v848h-123z" />
<glyph unicode="&#xfb02;" horiz-adv-x="1204" d="M850 0v1458h194v-1458h-194zM49 848v174h123v80q0 217 62.5 297t222.5 80l215 -19l-2 -160q-106 4 -170 5q-78 0 -105.5 -43t-27.5 -162v-78h280v-174h-280v-848h-195v848h-123z" />
<glyph unicode="&#xfb03;" horiz-adv-x="1885" d="M1536 0v1022h194v-1022h-194zM1536 1221v215h194v-215h-194zM739 848v174h123v80q0 217 62.5 297t222.5 80l215 -19l-2 -160q-106 4 -170 5q-78 0 -105.5 -43t-27.5 -162v-78h280v-174h-280v-848h-195v848h-123zM49 848v174h123v80q0 217 62.5 297t222.5 80l215 -19 l-2 -160q-106 4 -170 5q-78 0 -105.5 -43t-27.5 -162v-78h280v-174h-280v-848h-195v848h-123z" />
<glyph unicode="&#xfb04;" horiz-adv-x="1894" d="M1540 0v1458h194v-1458h-194zM739 848v174h123v80q0 217 62.5 297t222.5 80l215 -19l-2 -160q-106 4 -170 5q-78 0 -105.5 -43t-27.5 -162v-78h280v-174h-280v-848h-195v848h-123zM49 848v174h123v80q0 217 62.5 297t222.5 80l215 -19l-2 -160q-106 4 -170 5 q-78 0 -105.5 -43t-27.5 -162v-78h280v-174h-280v-848h-195v848h-123z" />
<glyph horiz-adv-x="481" />
</font>
</defs>
</svg>
