<?xml version="1.0" standalone="no"?>
<!DOCTYPE svg PUBLIC "-//W3C//DTD SVG 1.1//EN" "http://www.w3.org/Graphics/SVG/1.1/DTD/svg11.dtd" >
<svg xmlns="http://www.w3.org/2000/svg">
<metadata>
This is a custom SVG webfont generated by Font Squirrel.
Copyright   : Copyright c 20082010 by Accademia di Belle Arti di Urbino and others All rights reserved
Designer    : Accademia di Belle Arti di Urbino and others
Foundry     : Accademia di Belle Arti di Urbino and others
Foundry URL : wwwcampivisivinet
</metadata>
<defs>
<font id="TitilliumText25L400wt" horiz-adv-x="1085" >
<font-face units-per-em="2048" ascent="1536" descent="-512" />
<missing-glyph horiz-adv-x="481" />
<glyph unicode=" "  horiz-adv-x="481" />
<glyph unicode="&#x09;" horiz-adv-x="481" />
<glyph unicode="&#xa0;" horiz-adv-x="481" />
<glyph unicode="!" d="M471 0v233h168v-233h-168zM471 1432h166l-4 -957h-158z" />
<glyph unicode="&#x22;" horiz-adv-x="634" d="M88 1427h150l-5 -450h-143zM399 1427h150l-4 -450h-144z" />
<glyph unicode="#" d="M16 369v131h228v364h-228v131h228v369h139v-369h315v369h140v-369h225v-131h-225v-364h225v-131h-225v-369h-140v369h-315v-369h-139v369h-228zM383 500h315v364h-315v-364z" />
<glyph unicode="$" d="M104 1034q0 371 453 371q27 0 41 -2l29 223h104l-31 -229l261 -33l-15 -139q-141 16 -264 26l-61 -483q205 -49 286.5 -124t81.5 -245q0 -418 -444 -417h-25l-31 -236q-104 6 -104 14l29 228l-293 37l16 139q160 -23 295 -31l66 508q-213 49 -303.5 129t-90.5 264z M256 1038q0 -115 56.5 -163t205.5 -84l60 466h-21q-301 0 -301 -219zM539 129h4q150 0 221.5 62.5t71.5 201.5q0 100 -52.5 147.5t-181.5 77.5z" />
<glyph unicode="%" d="M37 1155q0 283 231 283q233 0 234 -285q0 -289 -234 -289q-231 0 -231 291zM160 1155q0 -96 23.5 -141t84.5 -45q63 0 87 44t24 140q0 94 -23.5 136t-87.5 42q-61 0 -84.5 -42t-23.5 -134zM248 55l524 1377l96 -48l-522 -1376zM610 293q1 280 232 280q233 0 233 -282 q0 -289 -233 -289q-231 0 -232 291zM733 293q0 -98 23.5 -142.5t85 -44.5t86 45.5t24.5 139.5t-24.5 136t-86 42t-85 -42t-23.5 -134z" />
<glyph unicode="&#x26;" horiz-adv-x="1433" d="M98 418q0 166 77 260t237 156q-63 74 -84 135t-21 157q0 143 93.5 227.5t261.5 84.5q176 0 265 -84t89 -238q0 -141 -71 -227t-238 -166l292 -293q41 133 58 275l149 -3q-29 -213 -88 -372l264 -254l-96 -105l-246 232q-88 -123 -197.5 -178.5t-267.5 -55.5 q-477 0 -477 449zM254 420q0 -305 328 -305q117 0 198.5 44t145.5 144l-416 422q-135 -45 -195.5 -114.5t-60.5 -190.5zM461 1110q0 -139 92 -231l55 -58q141 61 197.5 120.5t56.5 164.5q0 188 -200.5 188t-200.5 -184z" />
<glyph unicode="'" horiz-adv-x="204" d="M20 1423h156l-10 -462h-141z" />
<glyph unicode="(" horiz-adv-x="532" d="M74 616.5q0 182.5 49 411.5t99 369l50 139h162q-23 -59 -54.5 -158.5t-85.5 -344.5t-54 -417q0 -170 48 -388t97 -351l49 -133h-162q-23 51 -55.5 139t-87.5 319.5t-55 414z" />
<glyph unicode=")" horiz-adv-x="532" d="M74 -256q23 57 54.5 152.5t85.5 333t54 407.5q0 172 -48 396t-97 364l-49 139h162q23 -55 55.5 -147.5t87.5 -331t55 -420.5t-49 -405.5t-99 -355.5l-50 -132h-162z" />
<glyph unicode="*" d="M254 938l221 162l-219 157l63 86l216 -155l86 254l100 -33l-82 -260h266v-102h-268l82 -256l-98 -31l-86 258l-220 -162z" />
<glyph unicode="+" horiz-adv-x="937" d="M-47 475v143h440v439h144v-439h444v-143h-444v-442h-144v442h-440z" />
<glyph unicode="," horiz-adv-x="348" d="M53 -252l94 471h166l-112 -471h-148z" />
<glyph unicode="-" horiz-adv-x="901" d="M131 500v151h639v-151h-639z" />
<glyph unicode="." horiz-adv-x="507" d="M158 0v233h166v-233h-166z" />
<glyph unicode="/" d="M180 31l572 1421l145 -53l-571 -1419z" />
<glyph unicode="0" d="M47 653q0 399 123 560t371 161q168 0 272.5 -62.5t162.5 -223t58 -433.5q0 -190 -32.5 -323t-98 -209t-152.5 -109.5t-208 -33.5q-248 0 -372 150.5t-124 522.5zM215 653q0 -207 39 -323.5t107.5 -158.5t181.5 -42q170 0 246.5 111.5t76.5 414.5q0 326 -74.5 448 t-250.5 122q-174 0 -250 -122t-76 -450z" />
<glyph unicode="1" d="M133 1067l428 285h150v-1352h-158v1171l-346 -231z" />
<glyph unicode="2" d="M117 0v145l391 406q78 80 114.5 121t81 100t61.5 111.5t17 111.5q0 121 -71.5 173.5t-223.5 52.5q-66 0 -152.5 -11.5t-140.5 -22.5l-55 -11l-12 145q201 53 391 53q217 0 322.5 -87t105.5 -275q0 -143 -61.5 -249t-212.5 -259l-344 -352h653v-152h-864z" />
<glyph unicode="3" d="M102 27l17 143q221 -39 413 -39q293 0 293 250q0 236 -276 246h-275v143h273q88 0 167 66.5t79 169.5q0 117 -65.5 167t-211.5 50q-82 0 -176 -9.5t-146 -19.5l-53 -10l-16 141q211 49 399 49q236 0 334 -84t98 -268q0 -49 -13 -93t-29.5 -73t-44 -55.5t-44 -37.5 t-43 -27.5t-28.5 -16.5q119 -43 177 -111.5t58 -220.5q0 -207 -106.5 -307t-333.5 -100q-94 0 -206 12t-176 23z" />
<glyph unicode="4" d="M59 254v127l385 971h172l-376 -949h477v433h157v-433h170v-149h-170v-262h-157v262h-658z" />
<glyph unicode="5" d="M100 39l19 141q242 -49 424 -49q135 0 215 81t80 228q0 264 -285 265q-72 0 -147.5 -20.5t-116.5 -40.5l-41 -19l-129 22l41 705h786v-150h-643l-35 -428q158 78 299 78q434 0 434 -406q0 -227 -118.5 -345.5t-333.5 -118.5q-92 0 -204 14t-178 29z" />
<glyph unicode="6" d="M68 682q0 692 528 692q76 0 169 -8t147 -16l55 -9l-15 -143q-184 25 -356 25q-176 0 -269.5 -117t-95.5 -340l53 19q52 19 137 40t150 21q453 0 453 -420q0 -215 -123 -330.5t-350 -115.5q-483 0 -483 702zM229 625q8 -498 322 -498q152 0 231.5 76t79.5 223 q0 274 -303 274q-70 -2 -152.5 -21.5t-130.5 -36.5z" />
<glyph unicode="7" d="M113 1202v150h839v-207l-524 -1172l-147 47l507 1133v49h-675z" />
<glyph unicode="8" d="M45 344q0 145 56.5 221t177.5 142q-111 55 -161 125.5t-50 191.5q0 172 128 261t353 89t357 -89t132 -263q0 -127 -51 -193.5t-174 -121.5q123 -55 184.5 -130t61.5 -210q0 -387 -510 -387q-504 0 -504 364zM213 371q0 -242 336 -242q342 0 342 254q0 109 -60.5 161 t-179.5 85h-215q-113 -31 -168 -90.5t-55 -167.5zM236 1006q0 -90 48 -144.5t152 -93.5h215q111 35 165 90t54 146q0 221 -319 221q-315 0 -315 -219z" />
<glyph unicode="9" d="M70 924q0 211 127 330.5t342 119.5q487 0 487 -702q0 -377 -135 -534.5t-399 -157.5q-76 0 -169.5 7t-147.5 15l-54 8l14 144q184 -25 357 -25q371 0 372 453q-205 -74 -352 -74q-442 0 -442 416zM233 924q0 -271 291 -271q63 0 148.5 17.5t139.5 36.5l54 18 q-4 233 -82.5 366.5t-244.5 133.5q-141 0 -223.5 -80t-82.5 -221z" />
<glyph unicode=":" horiz-adv-x="362" d="M123 0v233h168v-233h-168zM123 659v234h168v-234h-168z" />
<glyph unicode=";" horiz-adv-x="405" d="M49 -244l101 480h169l-131 -480h-139zM137 659v234h168v-234h-168z" />
<glyph unicode="&#x3c;" d="M129 555v160l711 430v-162l-564 -344l564 -358v-166q-51 27 -351.5 216t-359.5 224z" />
<glyph unicode="=" d="M68 694v142h936v-142h-936zM70 309v142h936v-142h-936z" />
<glyph unicode="&#x3e;" d="M129 115v166l563 358l-563 344v162l711 -430v-160q-59 -35 -359.5 -224.5t-351.5 -215.5z" />
<glyph unicode="?" horiz-adv-x="790" d="M16 1401q233 55 344 55q221 0 326 -81.5t105 -274.5q0 -96 -40 -178t-97.5 -136.5t-115 -100.5t-97.5 -97t-40 -105v-77h-161v83q0 72 39.5 136.5t97 112.5t114 97.5t96.5 114t40 135.5q0 117 -62.5 165t-208.5 48q-45 0 -125.5 -12t-138.5 -24l-57 -13zM238 2v234h168 v-234h-168z" />
<glyph unicode="@" horiz-adv-x="2017" d="M106 535q0 494 234.5 720t691.5 226t668 -210t211 -646v-35q0 -158 -17.5 -268.5t-45 -177t-76 -103.5t-98.5 -49t-122 -12q-98 0 -152 21.5t-85 90.5q-209 -111 -359 -110q-76 0 -132 18t-112.5 69.5t-86 160t-29.5 268.5q0 276 90 410t324 134q41 0 100 -13t98 -25 l39 -13v33h154v-410q0 -238 13 -338t41 -126.5t97 -26.5q55 0 87 13.5t62 57.5t42 141t12 255v37q0 377 -167 541.5t-556 164.5q-395 0 -582.5 -188.5t-187.5 -609.5q0 -446 179.5 -624.5t590.5 -178.5l293 18l8 -147q-203 -18 -301 -19q-238 0 -402.5 45t-286.5 152.5 t-179.5 293t-57.5 460.5zM750 494q0 -215 59.5 -290t155.5 -75q121 0 303 86q-20 117 -21 350v293q-125 41 -213 41q-168 0 -226 -92t-58 -313z" />
<glyph unicode="A" horiz-adv-x="1236" d="M59 0l390 1425h346l383 -1423h-156l-109 356h-594l-102 -358h-158zM356 510h525l-211 770h-103z" />
<glyph unicode="B" horiz-adv-x="1265" d="M184 0v1425h512q422 0 422 -352q0 -139 -45 -218t-135 -122q106 -37 164.5 -112.5t58.5 -219.5q0 -215 -112.5 -308t-325.5 -93h-539zM340 145h377q137 0 209.5 60.5t72.5 206.5q0 239 -292 239h-367v-506zM340 795h365q131 0 191 64.5t60 193.5q0 121 -64.5 174 t-201.5 53h-350v-485z" />
<glyph unicode="C" horiz-adv-x="1097" d="M104 709q0 385 110 561t409 176q82 0 180 -12.5t154 -23.5l57 -11l-8 -142q-223 35 -367 35q-225 0 -299 -133t-74 -450q0 -313 74 -444.5t303 -131.5q57 0 147.5 9.5t152.5 18.5l63 9l6 -143q-227 -47 -389 -47q-156 0 -259.5 46t-160 144t-78 225t-21.5 314z" />
<glyph unicode="D" horiz-adv-x="1314" d="M184 0v1425h506q289 0 406.5 -180t117.5 -510q0 -164 -24.5 -288.5t-80.5 -229t-161.5 -161t-257.5 -56.5h-506zM340 150h350h1q360 0 360 585q0 121 -15.5 212t-54.5 169t-111.5 119t-179.5 41h-350v-1126z" />
<glyph unicode="E" horiz-adv-x="1155" d="M184 0v1425h860v-149h-704v-481h582v-148h-582v-497h704v-150h-860z" />
<glyph unicode="F" horiz-adv-x="1132" d="M184 0v1425h863v-149h-707v-551h584v-150h-584v-575h-156z" />
<glyph unicode="G" horiz-adv-x="1245" d="M106 711q0 375 120 555t425 180q96 0 212 -13.5t185 -26.5l68 -13l-6 -142q-254 43 -440 43q-233 0 -316.5 -136t-83.5 -447q0 -309 82 -444.5t316 -135.5q35 0 75.5 3t77.5 6t68 7.5t50 7.5t22 3v426h-236v143h391v-698q-291 -49 -461 -49q-307 0 -428 180t-121 551z " />
<glyph unicode="H" horiz-adv-x="1402" d="M184 0v1425h158v-630h721v630h156v-1425h-156v643h-721v-643h-158z" />
<glyph unicode="I" horiz-adv-x="505" d="M174 0v1425h158v-1425h-158z" />
<glyph unicode="J" horiz-adv-x="630" d="M68 0q145 0 188 39t43 203v1185h156q0 -217 1 -601t1 -603q0 -127 -20.5 -201.5t-75 -111.5t-117 -47t-176.5 -10v147z" />
<glyph unicode="K" horiz-adv-x="1218" d="M184 0v1425h158v-657l231 8l363 649h182l-405 -712l428 -713h-187l-376 627l-236 -9v-618h-158z" />
<glyph unicode="L" horiz-adv-x="1050" d="M184 0v1425h158v-1273h623v-152h-781z" />
<glyph unicode="M" horiz-adv-x="1740" d="M184 0v1425h275l411 -1198l414 1198h272v-1425h-157v1241h-29l-414 -1190h-174l-411 1190h-29v-1241h-158z" />
<glyph unicode="N" horiz-adv-x="1419" d="M184 0v1425h283l565 -1241h45v1241h158v-1425h-277l-573 1241h-43v-1241h-158z" />
<glyph unicode="O" horiz-adv-x="1333" d="M106 705q0 375 124 558t437.5 183t436.5 -182.5t123 -558.5q0 -383 -121 -554t-438.5 -171t-439.5 174t-122 551zM270 705q0 -305 81 -440.5t316.5 -135.5t316.5 132t81 444q0 303 -84 447t-313 144q-231 0 -314.5 -142t-83.5 -449z" />
<glyph unicode="P" horiz-adv-x="1241" d="M184 0v1425h518q231 0 342 -111.5t111 -344.5q0 -238 -113 -365t-340 -127h-360v-477h-158zM342 629h358q293 0 293 340q0 158 -69.5 231.5t-223.5 73.5h-358v-645z" />
<glyph unicode="Q" horiz-adv-x="1333" d="M106 705q0 375 124 558t437.5 183t436.5 -182.5t123 -558.5q0 -262 -52.5 -420t-181.5 -234l172 -278l-147 -70l-180 295q-74 -18 -170 -18q-317 0 -439.5 174t-122.5 551zM270 705q0 -305 81 -440.5t316.5 -135.5t316.5 132t81 444q0 303 -84 447t-313 144 q-231 0 -314.5 -142t-83.5 -449z" />
<glyph unicode="R" horiz-adv-x="1277" d="M184 0v1425h525q231 0 341.5 -103t110.5 -331q0 -332 -260 -411l273 -580h-175l-256 539h-401v-539h-158zM342 688h369q288 0 288 303q0 147 -70.5 216t-219.5 69h-367v-588z" />
<glyph unicode="S" horiz-adv-x="1093" d="M90 1067q0 381 467 381q70 0 174.5 -10.5t172.5 -20.5l69 -10l-15 -143q-275 32 -394 32h-7q-309 0 -309 -225q0 -131 70.5 -179t277.5 -93q227 -51 317.5 -129t90.5 -258q0 -430 -459 -430q-70 0 -178.5 10t-183.5 21l-74 12l16 143q272 -35 418 -35q154 0 227.5 63.5 t73.5 209.5q0 115 -66.5 165t-249.5 84q-240 51 -339 133t-99 279z" />
<glyph unicode="T" horiz-adv-x="1007" d="M-8 1274v151h1024v-151h-432v-1274h-156v1274h-436z" />
<glyph unicode="U" horiz-adv-x="1310" d="M160 430v995h157v-995q0 -297 332 -297q170 0 258 68.5t88 228.5v995h156v-995q0 -236 -126 -342t-376 -106q-242 0 -365.5 105.5t-123.5 342.5z" />
<glyph unicode="V" horiz-adv-x="1214" d="M59 1425h164l332 -1275h109l327 1275h164l-371 -1425h-350z" />
<glyph unicode="W" horiz-adv-x="1843" d="M76 1425h162l260 -1267h59l274 1255h179l282 -1255h60l254 1267h161l-303 -1425h-286l-256 1190l-252 -1190h-285z" />
<glyph unicode="X" horiz-adv-x="1189" d="M61 0l431 707l-431 718h179l356 -598l354 598h178l-423 -718l423 -707h-178l-352 590l-358 -590h-179z" />
<glyph unicode="Y" horiz-adv-x="1130" d="M39 1425h176l352 -639l348 639h177l-445 -815v-610h-158v612z" />
<glyph unicode="Z" horiz-adv-x="1167" d="M123 -2v195l731 1040v41h-731v151h921v-194l-731 -1043v-38h731v-152h-921z" />
<glyph unicode="[" horiz-adv-x="614" d="M84 -252v1786h430v-148h-274v-1490h274v-148h-430z" />
<glyph unicode="\" horiz-adv-x="1099" d="M145 1389l166 71l631 -1421l-166 -68z" />
<glyph unicode="]" horiz-adv-x="614" d="M84 -104h274v1490h-274v148h430v-1786h-430v148z" />
<glyph unicode="^" d="M98 666l359 686h159l371 -686h-166l-284 534l-275 -534h-164z" />
<glyph unicode="_" horiz-adv-x="1064" d="M55 -29h877v-143h-877v143z" />
<glyph unicode="`" horiz-adv-x="483" d="M-2 1399l53 135l447 -193l-49 -118z" />
<glyph unicode="a" horiz-adv-x="1069" d="M100 293q0 145 76 216t238 87l321 31v84q0 194 -184 194h-2q-63 0 -159.5 -6t-161.5 -13l-64 -7l-6 118q240 47 405 47h2q322 0 322 -333v-521q8 -76 119 -90l-5 -120q-162 0 -243 81q-182 -81 -365 -81h-4q-289 0 -289 313zM256 297q0 -188 158 -188q63 0 143 15t129 32 l49 16v338l-303 -29q-176 -16 -176 -184z" />
<glyph unicode="b" horiz-adv-x="1107" d="M178 2v1468h154v-493q154 67 299 67q207 0 291 -117.5t84 -396.5q0 -307 -103.5 -428.5t-380.5 -121.5q-55 0 -141 6t-144 11zM332 129q133 -12 188 -12q201 0 265.5 91t64.5 318q0 205 -50 291t-184 86q-59 0 -130.5 -13t-112.5 -28l-41 -14v-719z" />
<glyph unicode="c" horiz-adv-x="894" d="M102 530q0 279 97.5 396.5t326.5 117.5q41 0 111 -8t119 -15l49 -7l-4 -133q-164 18 -242 18q-174 0 -236.5 -81t-62.5 -288q0 -233 58.5 -320t240.5 -87l244 18l6 -133q-187 -28 -279 -28h-6q-242 0 -332 121.5t-90 428.5z" />
<glyph unicode="d" horiz-adv-x="1112" d="M102 508q0 276 99.5 406t328.5 130q117 0 250 -26v416h154v-1434h-154v68q-158 -88 -311 -88q-82 0 -142.5 21.5t-114.5 75.5t-82 162.5t-28 268.5zM256 504q0 -119 18.5 -198t54.5 -116.5t72.5 -53t87.5 -15.5q61 0 134 19.5t115 37.5l42 19v686q-161 22 -235 22h-6 q-156 0 -219.5 -96t-63.5 -305z" />
<glyph unicode="e" horiz-adv-x="1038" d="M102 506q0 538 428 538h2q207 0 309.5 -115.5t102.5 -363.5l-8 -119h-678q2 -168 62.5 -247.5t207.5 -79.5q68 0 162 5t154 9l59 4l4 -125q-224 -32 -387 -32h-10q-223 0 -315.5 128t-92.5 398zM258 571h533q0 182 -61.5 259t-197.5 77q-274 0 -274 -336z" />
<glyph unicode="f" horiz-adv-x="684" d="M57 885v139h129v92q0 217 60.5 295t214.5 78l207 -14l-2 -127q-115 4 -174 4q-88 0 -121 -49.5t-33 -188.5v-90h299v-139h-299v-885h-152v885h-129z" />
<glyph unicode="g" horiz-adv-x="1060" d="M96 -172q0 84 37 136t127 118q-57 37 -57 141q0 16 17.5 57.5t33.5 72.5l16 32q-160 74 -159 309q0 350 381 350q45 0 98 -6t84 -13l31 -7l299 8v-131l-189 4q68 -72 68 -205q0 -195 -94.5 -270.5t-303.5 -75.5q-55 0 -100 8q-37 -90 -37 -116q0 -63 39 -79t209 -16 q225 0 311 -61t86 -241q0 -324 -456 -324q-246 0 -343.5 66.5t-97.5 242.5zM248 -160q0 -109 60.5 -150.5t230.5 -41.5q156 0 227.5 45t71.5 145q0 111 -52.5 141.5t-199.5 30.5l-224 10q-66 -49 -90 -85.5t-24 -94.5zM264 694q0 -115 50 -169t173 -54q131 0 186.5 50 t55.5 173q0 131 -52 178.5t-185 47.5q-117 0 -172.5 -52.5t-55.5 -173.5z" />
<glyph unicode="h" horiz-adv-x="1157" d="M178 0v1470h154v-495q170 69 311 69h4q207 0 276.5 -111.5t69.5 -397.5v-535h-153v532q0 213 -41 292t-174 79q-61 0 -134 -15.5t-116 -29.5l-43 -14v-844h-154z" />
<glyph unicode="i" horiz-adv-x="483" d="M166 0v1024h151v-1024h-151zM166 1255v179h151v-179h-151z" />
<glyph unicode="j" horiz-adv-x="507" d="M-66 -328q160 92 208 156t48 199v997h152v-999q0 -188 -67.5 -282.5t-272.5 -199.5zM190 1262v180h152v-180h-152z" />
<glyph unicode="k" horiz-adv-x="1017" d="M178 0v1470h154v-858l157 9l306 403h172l-342 -471l348 -553h-174l-307 469l-160 -8v-461h-154z" />
<glyph unicode="l" horiz-adv-x="495" d="M172 0v1470h152v-1470h-152z" />
<glyph unicode="m" horiz-adv-x="1769" d="M178 0v1024h154v-70q123 74 256 82q41 5 72 5q23 0 40 -3q127 -12 189 -86q244 92 371 92q205 0 275.5 -110.5t70.5 -401.5v-532h-154v485q0 250 -38 334t-177 84q-135 0 -287 -76q25 -72 25 -295v-532h-154v528q0 221 -40 298t-175 77q-61 0 -129.5 -19.5t-106.5 -37.5 l-38 -19v-827h-154z" />
<glyph unicode="n" horiz-adv-x="1163" d="M178 0v1024h154v-74q164 94 317 94q205 0 274.5 -111.5t69.5 -400.5v-532h-151v535q0 215 -42 293.5t-179 78.5q-66 0 -138.5 -19.5t-111.5 -38.5l-39 -20v-829h-154z" />
<glyph unicode="o" horiz-adv-x="1081" d="M102 526q0 270 101.5 394t339.5 124q229 0 332.5 -128t103.5 -394q0 -281 -94 -411.5t-342 -130.5q-252 0 -346.5 126.5t-94.5 419.5zM260 526q0 -229 55.5 -319t227.5 -90q170 0 224 92t54 313q0 205 -65.5 294t-212.5 89q-162 0 -222.5 -83t-60.5 -296z" />
<glyph unicode="p" horiz-adv-x="1110" d="M178 -455v1479h154v-72q154 92 305 92q195 0 283 -122.5t88 -397.5q0 -299 -103.5 -421.5t-343.5 -122.5q-125 0 -229 22v-457h-154zM332 139q94 -22 211 -22h10q168 0 233.5 92t65.5 319q0 201 -59.5 288t-176.5 87q-59 0 -130.5 -19.5t-112.5 -39.5l-41 -21v-684z" />
<glyph unicode="q" horiz-adv-x="1099" d="M102 494q0 283 104.5 416.5t362.5 133.5l353 -20v-1479h-154v490q-111 -55 -258 -55q-219 0 -313.5 128t-94.5 386zM258 496q0 -190 57.5 -284.5t194.5 -94.5q61 0 125.5 15t98.5 32l34 16v717q-134 8 -197 8q-178 0 -245.5 -97t-67.5 -312z" />
<glyph unicode="r" horiz-adv-x="729" d="M178 0v1024h154v-135q158 119 356 155v-159q-86 -16 -175 -52t-135 -63l-46 -27v-743h-154z" />
<glyph unicode="s" horiz-adv-x="1001" d="M113 745q0 156 105.5 227.5t262.5 71.5q68 0 161 -10t152 -19l58 -9l-4 -134q-227 33 -359 33q-221 0 -221 -153q0 -72 49.5 -103t200.5 -53q211 -33 290 -93.5t79 -203.5q0 -172 -101.5 -245.5t-298.5 -73.5q-57 0 -147 9t-152 19l-61 10l8 134q233 -35 338 -35 q133 0 195.5 38t62.5 138q0 78 -50 108.5t-208 55.5q-201 31 -280.5 88t-79.5 200z" />
<glyph unicode="t" horiz-adv-x="743" d="M55 885v139h146v313h153v-313h324v-139h-324v-477q0 -176 24.5 -230.5t123.5 -54.5l182 10l8 -133q-135 -23 -207 -23q-162 0 -223 79t-61 296v533h-146z" />
<glyph unicode="u" horiz-adv-x="1144" d="M164 489v535h151v-532q0 -223 39 -299t178 -76q59 0 130 19.5t111 37.5l40 19v831h152v-1024h-152v66q-160 -86 -303 -86q-209 0 -277.5 108.5t-68.5 400.5z" />
<glyph unicode="v" horiz-adv-x="987" d="M49 1024h160l246 -893h75l250 893h156l-291 -1024h-307z" />
<glyph unicode="w" horiz-adv-x="1550" d="M57 1024h154l205 -885h33l245 865h162l244 -865h33l206 885h154l-244 -1024h-260l-215 801l-219 -801h-256z" />
<glyph unicode="x" horiz-adv-x="942" d="M55 0l320 512l-320 512h166l250 -401l250 401h168l-322 -512l322 -512h-168l-250 399l-248 -399h-168z" />
<glyph unicode="y" horiz-adv-x="987" d="M49 1024h154l256 -877h69l256 877h154l-426 -1479h-154l131 455h-149z" />
<glyph unicode="z" horiz-adv-x="980" d="M111 0v139l575 746h-575v139h759v-139l-575 -746h575v-139h-759z" />
<glyph unicode="{" horiz-adv-x="628" d="M20 571v131q115 29 160 80.5t45 141.5q0 27 -7 124t-7 138q0 188 91 270t302 90l2 -147q-137 -8 -185 -58.5t-48 -162.5q0 -35 7 -129.5t7 -122.5q0 -127 -45 -188.5t-160 -98.5q113 -37 159 -100.5t46 -190.5q0 -6 -7 -100t-7 -137q0 -113 48 -165t185 -61l-2 -147 q-209 8 -301 92t-92 266q0 43 7 135.5t7 114.5q0 90 -45 142.5t-160 82.5z" />
<glyph unicode="|" d="M455 -260v1735h155v-1735h-155z" />
<glyph unicode="}" horiz-adv-x="628" d="M20 -115q135 8 184.5 60.5t49.5 165.5q0 41 -7 123.5t-7 113.5q0 127 46 190.5t158 100.5q-115 37 -159.5 98.5t-44.5 188.5q0 29 7 123t7 129q0 113 -49 163t-185 58l3 147q211 -8 302 -90t91 -270q0 -41 -7.5 -138.5t-7.5 -123.5q0 -90 45.5 -141.5t159.5 -80.5v-131 q-115 -31 -160 -83t-45 -142q0 -23 7.5 -115t7.5 -135q0 -182 -92.5 -266t-300.5 -92z" />
<glyph unicode="~" d="M131 668q12 12 34.5 30.5t83 49t111.5 30.5q63 0 199.5 -51t179.5 -51q35 0 85 24.5t83 48.5l33 23l14 -147q-12 -12 -32.5 -29.5t-78 -47.5t-106.5 -30q-63 0 -202.5 51.5t-180.5 51.5q-39 0 -90 -25t-84 -49l-33 -25z" />
<glyph unicode="&#xa1;" d="M471 788v234h168v-234h-168zM473 -410l4 957h158l4 -957h-166z" />
<glyph unicode="&#xa2;" horiz-adv-x="894" d="M82 508q0 426 362 444v242h136v-248l206 -20l-6 -138q-188 14 -266 15q-152 0 -211 -65.5t-59 -229.5q0 -166 58 -225.5t226 -59.5l254 13l6 -138q-121 -14 -206 -20v-244h-136v240q-190 10 -277 106t-87 328z" />
<glyph unicode="&#xa3;" d="M168 0v135h174v586h-137v135h137v131q0 236 77 321t238 85q41 0 105.5 -6.5t108.5 -13.5l44 -7v-133q-170 23 -253 22q-98 0 -133 -57t-35 -221v-121h348v-135h-348v-586h315l156 33l26 -131l-168 -37h-655z" />
<glyph unicode="&#xa4;" horiz-adv-x="1083" d="M88 170l143 143q-59 92 -59 203t59 203l-143 143l109 109l143 -146q92 59 202.5 59.5t202.5 -59.5l144 146l108 -109l-145 -143q59 -92 59 -202.5t-59 -203.5l145 -143l-108 -109l-144 144q-92 -59 -202.5 -59.5t-202.5 59.5l-143 -144zM320 516q0 -94 63 -160 q66 -66 160 -65.5t159 65.5q63 66 63.5 160t-63.5 160q-66 66 -159.5 65.5t-159.5 -65.5q-63 -66 -63 -160z" />
<glyph unicode="&#xa5;" horiz-adv-x="1105" d="M27 1352h176l352 -553l348 553h176l-350 -574h279v-133h-357l-16 -39v-131h375v-133h-375v-342h-158v342h-379v133h379v131l-16 39h-365v133h287z" />
<glyph unicode="&#xa6;" d="M451 -262v782h153v-782h-153zM451 754v782h153v-782h-153z" />
<glyph unicode="&#xa7;" d="M139 522q0 80 43 156t76 102q-90 66 -90 228q0 326 393 325q59 0 143 -9t139 -17l54 -9l-8 -129q-223 31 -322 31q-131 0 -190.5 -45t-59.5 -143.5t62.5 -136t230.5 -68.5q180 -35 255 -94.5t75 -202.5q0 -137 -90 -268q76 -66 76 -205q0 -344 -391 -344q-57 0 -147.5 8 t-150.5 17l-61 10l14 129q223 -31 336 -31q252 0 252 203q0 92 -59.5 123.5t-235.5 64.5q-184 35 -264 98.5t-80 206.5zM293 545q0 -90 51 -129t180 -62q147 -29 209 -55q10 14 30.5 74.5t20.5 118.5q0 90 -52 126.5t-183 61.5q-133 23 -189 45q-68 -113 -67 -180z" />
<glyph unicode="&#xa8;" horiz-adv-x="483" d="M-25 1280v184h148v-184h-148zM385 1280v184h150v-184h-150z" />
<glyph unicode="&#xa9;" d="M20 889q0 229 149.5 387t373.5 158q227 0 375.5 -159t148.5 -386q0 -229 -148.5 -386t-377.5 -157q-223 0 -372 158t-149 385zM111 888.5q0 -190.5 122.5 -321.5t309 -131t310.5 131t124 321.5t-124 322.5t-310 132q-184 0 -308 -132t-124 -322.5zM303 891 q0 156 54.5 233.5t187.5 77.5l153 -12l-2 -125q-72 12 -151 12q-72 0 -95.5 -46t-23.5 -140q0 -190 119 -191q33 0 70.5 4.5t59.5 7.5l21 3l2 -125q-76 -16 -153 -17q-133 0 -187.5 78t-54.5 240z" />
<glyph unicode="&#xaa;" horiz-adv-x="1060" d="M283 954q0 143 153 156l209 14v47q0 66 -24.5 89.5t-81.5 23.5l-213 -14l-4 63q141 16 217 17q88 0 129 -42.5t41 -138.5v-274q12 -41 75 -47l-4 -57q-66 2 -110 45q-129 -45 -244 -45q-63 0 -103 45t-40 118zM350 950q0 -94 82 -94q41 0 94.5 8t85.5 18l33 9v174 l-199 -12q-51 -4 -73.5 -28t-22.5 -75z" />
<glyph unicode="&#xab;" horiz-adv-x="1200" d="M184 446v123l387 293v-157l-254 -193l254 -215v-160zM670 446v123l389 293v-157l-256 -193l256 -215v-160z" />
<glyph unicode="&#xac;" d="M125 561v148h840v-478h-152v330h-688z" />
<glyph unicode="&#xad;" horiz-adv-x="901" d="M131 500v151h639v-151h-639z" />
<glyph unicode="&#xae;" d="M4 888.5q0 235.5 149.5 397.5t389 162t392 -162t152.5 -397q0 -233 -153.5 -396t-390.5 -163q-240 0 -389.5 161.5t-149.5 397zM94 889q0 -195 129 -332t319.5 -137t320.5 137t130 332q0 197 -130 334t-320 137q-193 0 -321 -136t-128 -335zM315 565v645h215 q127 0 184.5 -44t57.5 -150q0 -150 -102 -193l116 -258h-127l-108 244h-119v-244h-117zM432 907h121q55 0 79.5 22.5t24.5 80.5q0 55 -30.5 78.5t-96.5 23.5h-98v-205z" />
<glyph unicode="&#xaf;" horiz-adv-x="483" d="M-45 1298v136h596v-136h-596z" />
<glyph unicode="&#xb0;" d="M209 1155q0 129 81 210t210 81t210 -81t81 -210t-81 -209t-210 -80t-210 80t-81 209zM313 1155q0 -84 51.5 -136t135.5 -52t137 52t53 136t-53 137.5t-137 53.5t-135.5 -53.5t-51.5 -137.5z" />
<glyph unicode="&#xb1;" d="M80 651v142h393v266h143v-266h402v-142h-402v-266h-143v266h-393zM82 123v141h938v-141h-938z" />
<glyph unicode="&#xb2;" horiz-adv-x="542" d="M45 979v115l180 176q104 100 105 170q0 74 -101 73q-27 0 -69.5 -5t-72.5 -10l-30 -5l-6 121q123 25 211 24q106 0 155.5 -45t49.5 -141q0 -117 -127 -231l-125 -123h260v-119h-430z" />
<glyph unicode="&#xb3;" horiz-adv-x="542" d="M51 979l10 115q115 -14 205 -15q100 0 101 84q0 86 -95 86h-135v111h133q29 0 53.5 26.5t24.5 63.5q0 68 -92 68l-186 -15l-11 115q121 20 209 20q217 0 217 -172q0 -102 -82 -153q51 -16 75 -49t24 -107q0 -199 -219 -199q-45 0 -102.5 5.5t-93.5 10.5z" />
<glyph unicode="&#xb4;" horiz-adv-x="548" d="M49 1341l447 195l55 -143l-451 -176z" />
<glyph unicode="&#xb5;" d="M156 -487v1511h153v-553q0 -209 40 -281.5t175 -72.5q61 0 131 19.5t110 37.5l40 19v831h151v-1024h-151v66q-160 -86 -303 -86q-135 0 -193 65v-532h-153z" />
<glyph unicode="&#x3bc;" d="M156 -487v1511h153v-553q0 -209 40 -281.5t175 -72.5q61 0 131 19.5t110 37.5l40 19v831h151v-1024h-151v66q-160 -86 -303 -86q-135 0 -193 65v-532h-153z" />
<glyph unicode="&#xb6;" d="M16 1055q0 166 108.5 272.5t274.5 106.5h674v-125h-149v-1309h-138v1309h-237v-1309h-137v680h-15q-166 0 -273.5 104.5t-107.5 270.5z" />
<glyph unicode="&#xb7;" horiz-adv-x="507" d="M158 502v233h166v-233h-166z" />
<glyph unicode="&#xb8;" horiz-adv-x="1705" d="M784 -430l7 98q80 -6 135 -6q90 0 90 78q0 70 -90 70h-86v192h84v-102q121 0 175 -33t54 -127q0 -184 -192 -184q-41 0 -85.5 3t-67.5 7z" />
<glyph unicode="&#xb9;" horiz-adv-x="542" d="M61 1475l209 143h123v-639h-131v496l-139 -97z" />
<glyph unicode="&#xba;" horiz-adv-x="1077" d="M295 1073q-1 277 235 277q119 0 175.5 -66.5t56.5 -210.5q0 -283 -232 -282q-236 0 -235 282zM365 1073q0 -117 38.5 -167t126.5 -50t125 50t37 167t-37 164t-125 47t-126.5 -48t-38.5 -163z" />
<glyph unicode="&#xbb;" horiz-adv-x="1200" d="M141 137v160l256 215l-256 193v157l389 -293v-123zM629 137v160l254 215l-254 193v157l387 -293v-123z" />
<glyph unicode="&#xbf;" horiz-adv-x="790" d="M16 -76q0 96 40 178t97.5 136.5t115 100.5t97.5 97t40 105v77h161v-83q0 -72 -40 -136.5t-97 -112.5t-113.5 -97.5t-96.5 -114t-40 -135.5q0 -117 62.5 -165t208.5 -48q45 0 125.5 12t138.5 24l57 13l19 -152q-233 -55 -345 -55q-221 0 -325.5 81.5t-104.5 274.5z M401 788v234h168v-234h-168z" />
<glyph unicode="&#xc0;" horiz-adv-x="1236" d="M63 0l390 1425h346l383 -1423h-156l-108 356h-594l-103 -358h-158zM336 1774l57 141l447 -193l-52 -127zM360 510h525l-211 770h-103z" />
<glyph unicode="&#xc1;" horiz-adv-x="1236" d="M63 0l390 1425h346l383 -1423h-156l-108 356h-594l-103 -358h-158zM360 510h525l-211 770h-103zM381 1751l446 195l56 -144l-451 -176z" />
<glyph unicode="&#xc2;" horiz-adv-x="1236" d="M63 0l390 1425h346l383 -1423h-156l-108 356h-594l-103 -358h-158zM301 1622l256 303h123l258 -303h-170l-147 172l-150 -172h-170zM360 510h525l-211 770h-103z" />
<glyph unicode="&#xc3;" horiz-adv-x="1236" d="M59 0l390 1425h346l383 -1423h-156l-109 356h-594l-102 -358h-158zM244 1788q115 123 198 123q55 0 181.5 -56.5t150.5 -56.5q18 0 57 23.5t69 47.5l30 23l37 -116q-106 -119 -189 -119q-51 0 -178 57.5t-156 57.5q-23 0 -63.5 -26t-70.5 -50l-29 -25zM356 510h525 l-211 770h-103z" />
<glyph unicode="&#xc4;" horiz-adv-x="1236" d="M63 0l390 1425h344l385 -1423h-158l-106 356h-594l-105 -358h-156zM360 510h523l-209 770h-103zM375 1690v184h147v-184h-147zM784 1690v184h148v-184h-148z" />
<glyph unicode="&#xc5;" horiz-adv-x="1236" d="M63 0l375 1372q-59 59 -59 152q0 100 68.5 157.5t175 57.5t174 -57.5t67.5 -157.5q0 -88 -53 -146l371 -1376h-156l-108 356h-594l-103 -358h-158zM360 510h525l-211 770h-103zM504 1524q0 -80 69 -99h95q72 20 71 99q0 49 -30.5 75.5t-86 26.5t-87 -26.5t-31.5 -75.5z " />
<glyph unicode="&#xc6;" horiz-adv-x="1839" d="M82 0l459 1425h1198v-149h-705v-471h582v-150h-582v-505h705v-150h-860v358h-514l-121 -358h-162zM408 510h471v766h-224z" />
<glyph unicode="&#xc7;" horiz-adv-x="1099" d="M104 709q0 385 110 561t409 176q82 0 180 -12.5t154 -23.5l57 -11l-8 -142q-223 35 -367 35q-225 0 -299 -133t-74 -450q0 -313 74 -444.5t303 -131.5q57 0 147.5 9.5t152.5 18.5l63 9l6 -143q-209 -43 -369 -47v-80q121 0 175 -33t54 -127q0 -184 -192 -184q-41 0 -85 3 t-68 7l-23 4l6 98q80 -6 135 -6q90 0 90 78q0 70 -90 70h-86v172q-264 18 -359.5 192t-95.5 535z" />
<glyph unicode="&#xc8;" horiz-adv-x="1155" d="M184 0v1425h860v-149h-704v-481h582v-148h-582v-497h704v-150h-860zM356 1774l58 141l446 -193l-51 -127z" />
<glyph unicode="&#xc9;" horiz-adv-x="1171" d="M188 0v1425h861v-149h-705v-481h582v-148h-582v-497h705v-150h-861zM395 1751l447 195l55 -144l-451 -176z" />
<glyph unicode="&#xca;" horiz-adv-x="1171" d="M188 0v1425h861v-149h-705v-481h582v-148h-582v-497h705v-150h-861zM315 1622l256 303h123l258 -303h-170l-147 172l-150 -172h-170z" />
<glyph unicode="&#xcb;" horiz-adv-x="1171" d="M188 0v1425h861v-149h-705v-481h582v-148h-582v-497h705v-150h-861zM350 1690v184h148v-184h-148zM760 1690v184h149v-184h-149z" />
<glyph unicode="&#xcc;" horiz-adv-x="505" d="M-53 1774l57 141l447 -193l-52 -127zM174 0v1425h158v-1425h-158z" />
<glyph unicode="&#xcd;" horiz-adv-x="505" d="M20 1731l447 194l55 -143l-450 -176zM174 0v1425h158v-1425h-158z" />
<glyph unicode="&#xce;" horiz-adv-x="505" d="M-88 1636l272 277h138l272 -277h-178l-162 154l-160 -154h-182zM174 0v1425h158v-1425h-158z" />
<glyph unicode="&#xcf;" horiz-adv-x="505" d="M-31 1679v185h150v-185h-150zM174 0v1425h158v-1425h-158zM393 1679v185h148v-185h-148z" />
<glyph unicode="&#xd0;" horiz-adv-x="1314" d="M45 627v149h139v649h506q289 0 406.5 -180t117.5 -510q0 -164 -24.5 -288.5t-80.5 -229t-161.5 -161t-257.5 -56.5h-506v627h-139zM340 150h350q361 -1 361 585q0 121 -15.5 212t-54.5 169t-111.5 119t-179.5 41h-350v-500h311v-149h-311v-477z" />
<glyph unicode="&#xd1;" horiz-adv-x="1406" d="M174 0v1425h283l565 -1241h47v1241h156v-1425h-277l-571 1241h-45v-1241h-158zM358 1794q104 111 189 111q55 0 164.5 -50.5t136.5 -50.5q20 0 56 20.5t62 41.5l25 20l35 -119q-94 -104 -176 -104q-49 0 -162 51t-141 51q-23 0 -60.5 -22.5t-64.5 -43.5l-27 -22z" />
<glyph unicode="&#xd2;" horiz-adv-x="1343" d="M111 705q0 375 123.5 558t437 183t436.5 -182.5t123 -558.5q0 -383 -121 -554t-438.5 -171t-439 174t-121.5 551zM274 705q0 -305 81 -440.5t316.5 -135.5t316.5 132t81 444q0 303 -84 447t-313 144q-231 0 -314.5 -142t-83.5 -449zM403 1774l58 141l446 -193l-51 -127z " />
<glyph unicode="&#xd3;" horiz-adv-x="1343" d="M111 705q0 375 123.5 558t437 183t436.5 -182.5t123 -558.5q0 -383 -121 -554t-438.5 -171t-439 174t-121.5 551zM274 705q0 -305 81 -440.5t316.5 -135.5t316.5 132t81 444q0 303 -84 447t-313 144q-231 0 -314.5 -142t-83.5 -449zM410 1751l446 195l55 -144l-450 -176z " />
<glyph unicode="&#xd4;" horiz-adv-x="1343" d="M111 705q0 375 123.5 558t437 183t436.5 -182.5t123 -558.5q0 -383 -121 -554t-438.5 -171t-439 174t-121.5 551zM274 705q0 -305 81 -440.5t316.5 -135.5t316.5 132t81 444q0 303 -84 447t-313 144q-231 0 -314.5 -142t-83.5 -449zM354 1622l256 303h123l258 -303h-170 l-147 172l-150 -172h-170z" />
<glyph unicode="&#xd5;" horiz-adv-x="1343" d="M111 704.5q0 374.5 123.5 558t437 183.5t437.5 -182.5t124 -558.5q0 -383 -122 -554t-439.5 -171t-439 175t-121.5 549.5zM274 705q0 -305 81 -440.5t316.5 -135.5t316.5 132t81 444q0 305 -84 448t-313 143q-231 0 -314.5 -142t-83.5 -449zM330 1794q104 111 188 111 q55 0 165 -50.5t136 -50.5q20 0 56 20.5t62 41.5l26 20l34 -119q-94 -104 -176 -104q-49 0 -161.5 51t-141.5 51q-23 0 -60.5 -22.5t-64.5 -43.5l-26 -22z" />
<glyph unicode="&#xd6;" horiz-adv-x="1343" d="M111 704.5q0 374.5 123.5 558t437 183.5t437.5 -182.5t124 -558.5q0 -383 -122 -554t-439.5 -171t-439 175t-121.5 549.5zM274 705q0 -305 81 -440.5t316.5 -135.5t316.5 132t81 444q0 305 -84 448t-313 143q-231 0 -314.5 -142t-83.5 -449zM385 1690v184h147v-184h-147z M797 1690v184h147v-184h-147z" />
<glyph unicode="&#xd7;" horiz-adv-x="1458" d="M373 150l389 401l-385 399l102 99l383 -396l385 396l105 -99l-387 -399l389 -401l-103 -99l-389 398l-387 -398z" />
<glyph unicode="&#xd8;" horiz-adv-x="1333" d="M106 705q0 375 124 558t438 183q150 0 254 -43l110 237l127 -53l-119 -254q186 -162 187 -628q0 -383 -121 -554t-438 -171q-139 0 -244 34l-119 -254l-123 60l121 258q-109 82 -153 234.5t-44 392.5zM270 705q0 -350 105 -472l479 1029q-76 35 -186 34 q-231 0 -314.5 -142t-83.5 -449zM489 156q73 -27 179 -27q236 0 316.5 132t80.5 444q0 336 -100 469z" />
<glyph unicode="&#xd9;" horiz-adv-x="1310" d="M160 430v995h157v-995q0 -297 332 -297q170 0 258 68.5t88 228.5v995h156v-995q0 -236 -126 -342t-376 -106q-242 0 -365.5 105.5t-123.5 342.5zM264 1774l58 141l446 -193l-51 -127z" />
<glyph unicode="&#xda;" horiz-adv-x="1314" d="M164 430v995h158v-995q0 -297 331 -297q170 0 258 68.5t88 228.5v995h156v-995q0 -236 -126 -342t-376 -106q-242 0 -365.5 105.5t-123.5 342.5zM399 1751l447 195l55 -144l-450 -176z" />
<glyph unicode="&#xdb;" horiz-adv-x="1314" d="M164 430v995h158v-995q0 -297 331 -297q170 0 258 68.5t88 228.5v995h156v-995q0 -236 -126 -342t-376 -106q-242 0 -365.5 105.5t-123.5 342.5zM344 1622l256 303h123l258 -303h-170l-147 172l-150 -172h-170z" />
<glyph unicode="&#xdc;" horiz-adv-x="1314" d="M164 430v995h158v-995q0 -297 331 -297q170 0 258 68.5t88 228.5v995h156v-995q0 -236 -126 -342t-376 -106q-242 0 -365.5 105.5t-123.5 342.5zM418 1690v184h147v-184h-147zM827 1690v184h150v-184h-150z" />
<glyph unicode="&#xdd;" horiz-adv-x="1105" d="M27 1425h176l352 -639l348 639h176l-444 -815v-610h-158v612zM279 1751l446 195l55 -144l-450 -176z" />
<glyph unicode="&#xde;" horiz-adv-x="1189" d="M145 0v1425h156v-229h363q231 0 341.5 -111.5t110.5 -345.5q0 -238 -112.5 -364.5t-339.5 -126.5h-363v-248h-156zM301 399h361q295 0 294 340q0 158 -70.5 231.5t-223.5 73.5h-361v-645z" />
<glyph unicode="&#xdf;" horiz-adv-x="1239" d="M178 0v1116q0 205 95.5 289t308.5 84q215 0 306 -67.5t91 -225.5q0 -197 -156 -262q-82 -33 -107.5 -51.5t-25.5 -46.5q0 -27 30 -51.5t150 -90.5q160 -86 213.5 -134t53.5 -130q0 -252 -101.5 -350t-386.5 -98q-31 0 -79 6t-81 12l-32 6l8 127q150 -8 184 -8 q199 0 263.5 63.5t64.5 225.5q0 31 -47 66.5t-176 103.5q-139 68 -181.5 116t-42.5 123q0 74 39 116t131 81q74 31 96.5 68.5t22.5 99.5q0 90 -53 126t-184 36t-189.5 -52.5t-58.5 -199.5v-1098h-156z" />
<glyph unicode="&#xe0;" horiz-adv-x="1075" d="M84 293q0 145 76 216t237 87l322 31v84q0 195 -187 194q-63 0 -159.5 -6t-160.5 -13l-65 -7l-6 118q240 47 406 47q323 1 323 -333v-521q8 -76 119 -90l-4 -120q-162 0 -244 81q-184 -82 -368 -81q-289 0 -289 313zM240 297q0 -188 157 -188q63 0 143.5 15t129.5 32 l49 16v338l-303 -29q-176 -16 -176 -184zM240 1399l53 135l446 -193l-49 -118z" />
<glyph unicode="&#xe1;" horiz-adv-x="1075" d="M84 293q0 145 76 216t237 87l322 31v84q0 195 -187 194q-63 0 -159.5 -6t-160.5 -13l-65 -7l-6 118q240 47 406 47q323 1 323 -333v-521q8 -76 119 -90l-4 -120q-162 0 -244 81q-184 -82 -368 -81q-289 0 -289 313zM240 297q0 -188 157 -188q63 0 143.5 15t129.5 32 l49 16v338l-303 -29q-176 -16 -176 -184zM244 1341l446 195l55 -143l-450 -176z" />
<glyph unicode="&#xe2;" horiz-adv-x="1075" d="M84 293q0 145 76 216t237 87l322 31v84q0 195 -187 194q-63 0 -159.5 -6t-160.5 -13l-65 -7l-6 118q240 47 406 47q323 1 323 -333v-521q8 -76 119 -90l-4 -120q-162 0 -244 81q-184 -82 -368 -81q-289 0 -289 313zM184 1212l256 304h123l258 -304h-170l-147 172 l-150 -172h-170zM240 297q0 -188 157 -188q63 0 143.5 15t129.5 32l49 16v338l-303 -29q-176 -16 -176 -184z" />
<glyph unicode="&#xe3;" horiz-adv-x="1075" d="M84 293q0 145 76 217t237 86l322 31v84q0 186 -178 186q-66 0 -164 -6t-163 -13l-64 -8l-7 134q246 41 406 40q164 0 243.5 -80.5t79.5 -252.5v-504q2 -80 117 -94l-4 -133q-168 0 -244 77q-182 -78 -379 -77q-133 0 -205.5 81.5t-72.5 231.5zM160 1384q104 111 188 111 q55 0 165 -50t136 -50q20 0 56 20.5t62 40.5l26 21l34 -119q-94 -104 -176 -105q-49 0 -161.5 51.5t-141.5 51.5q-23 0 -60.5 -22.5t-64.5 -44.5l-26 -21zM242 297q0 -88 37.5 -136t107.5 -48q68 0 151 15t132 31l49 15v328l-303 -25q-174 -16 -174 -180z" />
<glyph unicode="&#xe4;" horiz-adv-x="1075" d="M84 293q0 145 76 217t237 86l322 31v84q0 186 -178 186q-66 0 -164 -6t-163 -13l-64 -8l-7 134q246 41 406 40q164 0 243.5 -80.5t79.5 -252.5v-504q2 -80 117 -94l-4 -133q-168 0 -244 77q-182 -78 -379 -77q-133 0 -205.5 81.5t-72.5 231.5zM236 1280v184h147v-184 h-147zM242 297q0 -88 37.5 -136t107.5 -48q68 0 151 15t132 31l49 15v328l-303 -25q-174 -16 -174 -180zM645 1280v184h150v-184h-150z" />
<glyph unicode="&#xe5;" horiz-adv-x="1075" d="M84 293q0 145 76 216t237 87l322 31v84q0 195 -187 194q-63 0 -159.5 -6t-160.5 -13l-65 -7l-6 118q240 47 406 47q323 1 323 -333v-521q8 -76 119 -90l-4 -120q-162 0 -244 81q-184 -82 -368 -81q-289 0 -289 313zM240 297q0 -188 157 -188q63 0 143.5 15t129.5 32 l49 16v338l-303 -29q-176 -16 -176 -184zM311 1321q0 90 61.5 151.5t151.5 61.5q88 0 149.5 -61.5t61.5 -151.5t-60.5 -151.5t-150.5 -61.5t-151.5 61.5t-61.5 151.5zM424 1321q0 -43 28.5 -73.5t71.5 -30.5t72 30.5t29 73.5t-29 72.5t-72 29.5t-71.5 -29.5t-28.5 -72.5z " />
<glyph unicode="&#xe6;" horiz-adv-x="1695" d="M111 293q0 164 82.5 226.5t285.5 82.5l264 25v84q0 186 -176 186q-68 0 -165 -5t-161 -10l-65 -5l-4 137q244 31 401 30q209 0 277 -149q98 150 319 149q207 0 310.5 -115.5t103.5 -363.5l-8 -119h-678q0 -168 61.5 -247.5t208.5 -79.5q68 0 161 5t154 9l60 4l4 -125 q-231 -33 -397 -32q-207 0 -301 110l-66 -29q-190 -82 -393 -81q-137 0 -207.5 80.5t-70.5 232.5zM266 297q1 -184 146 -184q94 0 215 29.5t151 45.5q-37 104 -37 314l-301 -25q-90 -8 -132 -51t-42 -129zM897 571h533q0 182 -61.5 259t-199.5 77q-135 0 -203.5 -80 t-68.5 -256z" />
<glyph unicode="&#xe7;" horiz-adv-x="894" d="M102 530q0 279 97.5 396.5t326.5 117.5q41 0 111 -8t119 -15l49 -7l-4 -133q-164 18 -242 18q-174 0 -236.5 -81t-62.5 -288q0 -233 58.5 -320t240.5 -87l244 18l6 -133q-180 -27 -274 -28v-80q121 0 175 -33t54 -127q0 -184 -193 -184q-41 0 -85 3t-67 7l-24 4l6 98 q80 -6 136 -6q90 0 90 78q0 70 -90 70h-86v174q-197 14 -273 138t-76 408z" />
<glyph unicode="&#xe8;" horiz-adv-x="1030" d="M100 506q0 539 430 538q207 0 309.5 -115.5t102.5 -363.5l-8 -119h-678q2 -168 62.5 -247.5t207.5 -79.5q68 0 162 5t154 9l59 4l4 -125q-231 -33 -397 -32q-223 0 -315.5 128t-92.5 398zM227 1384l54 136l446 -193l-49 -119zM256 571h532q0 182 -61 259t-197 77 q-274 0 -274 -336z" />
<glyph unicode="&#xe9;" horiz-adv-x="1030" d="M100 506q0 539 430 538q207 0 309.5 -115.5t102.5 -363.5l-8 -119h-678q2 -168 62.5 -247.5t207.5 -79.5q68 0 162 5t154 9l59 4l4 -125q-231 -33 -397 -32q-223 0 -315.5 128t-92.5 398zM256 571h532q0 182 -61 259t-197 77q-274 0 -274 -336zM305 1341l447 195l55 -143 l-451 -176z" />
<glyph unicode="&#xea;" horiz-adv-x="1030" d="M100 506q0 539 430 538q207 0 309.5 -115.5t102.5 -363.5l-8 -119h-678q2 -168 62.5 -247.5t207.5 -79.5q68 0 162 5t154 9l59 4l4 -125q-231 -33 -397 -32q-223 0 -315.5 128t-92.5 398zM225 1212l256 304h123l258 -304h-170l-147 172l-150 -172h-170zM256 571h532 q0 182 -61 259t-197 77q-274 0 -274 -336z" />
<glyph unicode="&#xeb;" horiz-adv-x="1030" d="M100 506q0 539 430 538q207 0 309.5 -115.5t102.5 -363.5l-8 -119h-678q2 -168 63.5 -247.5t206.5 -79.5q68 0 162 5t154 9l59 4l4 -125q-231 -33 -397 -32q-223 0 -315.5 128t-92.5 398zM246 1280v184h149v-184h-149zM256 571h532q0 182 -61 259t-197 77 q-274 0 -274 -336zM657 1280v184h148v-184h-148z" />
<glyph unicode="&#xec;" horiz-adv-x="534" d="M10 1399l53 135l447 -193l-49 -118zM195 0v1024h151v-1024h-151z" />
<glyph unicode="&#xed;" horiz-adv-x="534" d="M70 1341l446 195l55 -143l-450 -176zM195 0v1024h151v-1024h-151z" />
<glyph unicode="&#xee;" horiz-adv-x="540" d="M-51 1212l256 304h123l258 -304h-170l-148 172l-149 -172h-170zM195 0v1024h151v-1024h-151z" />
<glyph unicode="&#xef;" horiz-adv-x="534" d="M-16 1280v184h147v-184h-147zM195 0v1024h151v-1024h-151zM393 1280v184h148v-184h-148z" />
<glyph unicode="&#xf0;" d="M82 455q0 195 116.5 310.5t313.5 115.5q68 0 152 -18.5t134 -36.5l50 -17q-12 272 -301 420l-228 -164l-67 96l170 123q-102 37 -229 68l30 129q207 -43 334 -99l203 146l69 -96l-153 -111q336 -199 336 -600q0 -397 -110.5 -568t-362.5 -171q-217 0 -337 121.5 t-120 351.5zM244 455q0 -158 74.5 -244t220.5 -86q166 0 237.5 122t73.5 423q-183 73 -330 73q-127 0 -201.5 -80.5t-74.5 -207.5z" />
<glyph unicode="&#xf1;" horiz-adv-x="1173" d="M186 0v1024h154v-68q172 88 317 88q205 0 274.5 -111.5t69.5 -400.5v-532h-151v530q0 215 -41 294t-176 79q-59 0 -133 -19.5t-117 -37.5l-43 -19v-827h-154zM268 1384q104 111 189 111q55 0 164.5 -50t136.5 -50q20 0 56 20.5t62 40.5l25 21l35 -119q-94 -104 -176 -105 q-49 0 -162 51.5t-141 51.5q-23 0 -61 -22.5t-64 -44.5l-27 -21z" />
<glyph unicode="&#xf2;" horiz-adv-x="1081" d="M102 526q0 270 101.5 394t339.5 124q229 0 332.5 -128t103.5 -394q0 -281 -94 -411.5t-342 -130.5q-252 0 -346.5 126.5t-94.5 419.5zM260 526q0 -229 55.5 -319t227.5 -90q170 0 224 92t54 313q0 205 -65.5 294t-212.5 89q-162 0 -222.5 -83t-60.5 -296zM287 1399 l53 135l446 -193l-49 -118z" />
<glyph unicode="&#xf3;" horiz-adv-x="1081" d="M102 526q0 270 101.5 394t339.5 124q229 0 332.5 -128t103.5 -394q0 -281 -94 -411.5t-342 -130.5q-252 0 -346.5 126.5t-94.5 419.5zM260 526q0 -229 55.5 -319t227.5 -90q170 0 224 92t54 313q0 205 -65.5 294t-212.5 89q-162 0 -222.5 -83t-60.5 -296zM299 1341 l446 195l56 -143l-451 -176z" />
<glyph unicode="&#xf4;" horiz-adv-x="1081" d="M102 526q0 270 101.5 394t339.5 124q229 0 332.5 -128t103.5 -394q0 -281 -94 -411.5t-342 -130.5q-252 0 -346.5 126.5t-94.5 419.5zM217 1212l256 304h123l258 -304h-170l-147 172l-150 -172h-170zM260 526q0 -229 55.5 -319t227.5 -90q170 0 224 92t54 313 q0 205 -65.5 294t-212.5 89q-162 0 -222.5 -83t-60.5 -296z" />
<glyph unicode="&#xf5;" horiz-adv-x="1081" d="M102 526q0 270 101.5 394t339.5 124q229 0 332.5 -128t103.5 -394q0 -281 -94 -411.5t-342 -130.5q-252 0 -346.5 126.5t-94.5 419.5zM203 1384q104 111 188 111q55 0 165 -50t136 -50q18 0 54 20.5t63 40.5l27 21l34 -119q-94 -104 -176 -105q-49 0 -161.5 51.5 t-141.5 51.5q-23 0 -60.5 -22.5t-64.5 -44.5l-26 -21zM260 526q0 -229 55.5 -319t227.5 -90q170 0 224 92t54 313q0 205 -65.5 294t-212.5 89q-162 0 -222.5 -83t-60.5 -296z" />
<glyph unicode="&#xf6;" horiz-adv-x="1081" d="M102 526q0 270 101.5 394t339.5 124q229 0 332.5 -128t103.5 -394q0 -281 -94 -411.5t-342 -130.5q-252 0 -346.5 126.5t-94.5 419.5zM254 1280v184h149v-184h-149zM260 526q0 -229 55.5 -319t227.5 -90q170 0 224 92t54 313q0 205 -65.5 294t-212.5 89 q-162 0 -222.5 -83t-60.5 -296zM666 1280v184h147v-184h-147z" />
<glyph unicode="&#xf7;" d="M205 739v154h26v86h463v-86h33v-154h-522zM387 209v207h158v-207h-158z" />
<glyph unicode="&#xf8;" horiz-adv-x="1081" d="M102 526q0 270 101.5 394t339.5 124q78 0 149 -16l86 213l105 -39l-90 -215q186 -109 186 -465q0 -281 -94 -411.5t-342 -130.5q-86 0 -158 16l-90 -225l-102 36l90 226q-98 55 -139.5 174t-41.5 319zM260 526q0 -145 18.5 -229t67.5 -127l293 723q-43 12 -96 12 q-162 0 -222.5 -83t-60.5 -296zM436 127q39 -10 107 -10q170 0 224 92t54 313q0 238 -92 322z" />
<glyph unicode="&#xf9;" horiz-adv-x="1144" d="M164 489v535h151v-532q0 -223 39 -299t178 -76q59 0 130 19.5t111 37.5l40 19v831h152v-1024h-152v66q-160 -86 -303 -86q-209 0 -277.5 108.5t-68.5 400.5zM252 1393l59 141l447 -195l-58 -133z" />
<glyph unicode="&#xfa;" horiz-adv-x="1144" d="M164 489v535h151v-532q0 -223 39 -299t178 -76q59 0 130 19.5t111 37.5l40 19v831h152v-1024h-152v66q-160 -86 -303 -86q-209 0 -277.5 108.5t-68.5 400.5zM326 1341l446 195l55 -143l-450 -176z" />
<glyph unicode="&#xfb;" horiz-adv-x="1144" d="M164 489v535h151v-532q0 -223 39 -299t178 -76q59 0 130 19.5t111 37.5l40 19v831h152v-1024h-152v66q-160 -86 -303 -86q-209 0 -277.5 108.5t-68.5 400.5zM229 1212l256 304h123l258 -304h-170l-147 172l-150 -172h-170z" />
<glyph unicode="&#xfc;" horiz-adv-x="1144" d="M164 489v535h151v-532q0 -223 39 -299t178 -76q59 0 130 19.5t111 37.5l40 19v831h152v-1024h-152v66q-160 -86 -303 -86q-209 0 -277.5 108.5t-68.5 400.5zM301 1280v184h148v-184h-148zM711 1280v184h149v-184h-149z" />
<glyph unicode="&#xfd;" horiz-adv-x="983" d="M35 1024h153l256 -877h70l256 877h154l-426 -1479h-154l131 455h-149zM283 1341l446 195l55 -143l-450 -176z" />
<glyph unicode="&#xfe;" horiz-adv-x="1101" d="M233 -455v1925h152v-493q156 67 301 67q207 0 291 -117.5t84 -396.5q0 -307 -104.5 -428.5t-381.5 -121.5q-94 0 -190 10v-445h-152zM385 129q135 -12 190 -12q201 0 264.5 91t63.5 318q0 205 -50 291t-181 86q-61 0 -133 -13t-113 -28l-41 -14v-719z" />
<glyph unicode="&#xff;" horiz-adv-x="987" d="M49 1024h154l256 -877h69l256 877h154l-426 -1479h-154l131 455h-149zM213 1280v184h147v-184h-147zM623 1280v184h149v-184h-149z" />
<glyph unicode="&#x152;" horiz-adv-x="1933" d="M123 707q0 387 118.5 563t424.5 176q162 0 288 -21h848v-151h-692v-469h569v-152h-569v-501h692v-154h-846q-184 -18 -290 -18q-313 0 -428 172t-115 555zM287 708.5q0 -317.5 78.5 -446.5t318.5 -129q102 0 270 14v1127q-215 18 -272 18q-231 0 -313 -133t-82 -450.5z " />
<glyph unicode="&#x153;" horiz-adv-x="1794" d="M121 526q0 270 101.5 394t338.5 124q270 0 359 -192q98 193 350 192q207 0 309 -115.5t102 -363.5l-8 -119h-678q2 -168 64 -247.5t207 -79.5q68 0 162 5t153 9l59 4l5 -125q-231 -33 -398 -32q-242 0 -334 170q-84 -170 -352 -170q-252 0 -346 126.5t-94 419.5zM279 526 q0 -229 55 -319t227 -90q170 0 224.5 92t54.5 313q0 205 -65.5 294t-213.5 89q-162 0 -222 -83t-60 -296zM995 571h533q0 182 -61.5 259t-196.5 77q-275 0 -275 -336z" />
<glyph unicode="&#x178;" horiz-adv-x="1130" d="M39 1425h176l352 -639l348 639h177l-445 -815v-610h-158v612zM276 1679v185h150v-185h-150zM700 1679v185h148v-185h-148z" />
<glyph unicode="&#x2c6;" horiz-adv-x="483" d="M-51 1212l256 304h123l258 -304h-170l-148 172l-149 -172h-170z" />
<glyph unicode="&#x2dc;" horiz-adv-x="483" d="M-72 1384q104 111 189 111q53 0 163.5 -50t137.5 -50q18 0 54 20.5t63 40.5l26 21l35 -119q-94 -104 -178 -105q-49 0 -160 51.5t-141 51.5q-23 0 -61 -22.5t-64 -44.5l-27 -21z" />
<glyph unicode="&#x2000;" horiz-adv-x="973" />
<glyph unicode="&#x2001;" horiz-adv-x="1946" />
<glyph unicode="&#x2002;" horiz-adv-x="973" />
<glyph unicode="&#x2003;" horiz-adv-x="1946" />
<glyph unicode="&#x2004;" horiz-adv-x="648" />
<glyph unicode="&#x2005;" horiz-adv-x="486" />
<glyph unicode="&#x2006;" horiz-adv-x="324" />
<glyph unicode="&#x2007;" horiz-adv-x="324" />
<glyph unicode="&#x2008;" horiz-adv-x="243" />
<glyph unicode="&#x2009;" horiz-adv-x="389" />
<glyph unicode="&#x200a;" horiz-adv-x="108" />
<glyph unicode="&#x2010;" horiz-adv-x="901" d="M131 500v151h639v-151h-639z" />
<glyph unicode="&#x2011;" horiz-adv-x="901" d="M131 500v151h639v-151h-639z" />
<glyph unicode="&#x2012;" horiz-adv-x="901" d="M131 500v151h639v-151h-639z" />
<glyph unicode="&#x2013;" horiz-adv-x="1024" d="M0 483v144h1024v-144h-1024z" />
<glyph unicode="&#x2014;" horiz-adv-x="2048" d="M0 483v144h2048v-144h-2048z" />
<glyph unicode="&#x2018;" horiz-adv-x="348" d="M29 1040l106 449h139l-88 -449h-157z" />
<glyph unicode="&#x2019;" horiz-adv-x="348" d="M72 1079l88 449h157l-106 -449h-139z" />
<glyph unicode="&#x201a;" horiz-adv-x="393" d="M55 -211l107 449h139l-88 -449h-158z" />
<glyph unicode="&#x201c;" horiz-adv-x="718" d="M68 1040l106 449h139l-88 -449h-157zM373 1040l106 449h139l-88 -449h-157z" />
<glyph unicode="&#x201d;" horiz-adv-x="792" d="M141 1036l88 449h158l-106 -449h-140zM461 1036l88 449h158l-107 -449h-139z" />
<glyph unicode="&#x201e;" horiz-adv-x="749" d="M76 -211l88 449h158l-107 -449h-139zM395 -211l88 449h158l-106 -449h-140z" />
<glyph unicode="&#x2022;" d="M291 217v586h504v-586h-504z" />
<glyph unicode="&#x2026;" horiz-adv-x="1523" d="M176 0v233h166v-233h-166zM696 0v233h168v-233h-168zM1219 0v233h165v-233h-165z" />
<glyph unicode="&#x202f;" horiz-adv-x="389" />
<glyph unicode="&#x2039;" horiz-adv-x="636" d="M102 446v123l387 293v-157l-253 -193l253 -215v-160z" />
<glyph unicode="&#x203a;" horiz-adv-x="636" d="M147 145v160l256 215l-256 193v157l388 -292v-123z" />
<glyph unicode="&#x205f;" horiz-adv-x="486" />
<glyph unicode="&#x20ac;" horiz-adv-x="1136" d="M61 457v127h121q-2 29 -2 94t2 98h-121v127h129q25 252 135.5 365.5t364.5 113.5q82 0 173 -9t141 -19l49 -11l-6 -141q-195 27 -340 27q-180 0 -257 -76t-96 -250l553 -2v-125h-563v-192l563 -2v-125h-553q18 -172 96 -248t261 -76q57 0 141 7t139 15l56 7l6 -144 q-201 -39 -363 -38q-256 0 -366.5 113.5t-133.5 363.5h-129z" />
<glyph unicode="&#x2122;" d="M14 1188v102h410v-102h-135v-508h-113v508h-162zM487 678v612h146l137 -426l143 426h146v-612h-107v459l-135 -428h-88l-135 428v-459h-107z" />
<glyph unicode="&#xe000;" horiz-adv-x="1025" d="M0 1025h1025v-1025h-1025v1025z" />
<glyph unicode="&#xfb01;" horiz-adv-x="1167" d="M850 0v1024h151v-1024h-151zM850 1255v179h151v-179h-151zM57 885v139h129v92q0 217 60.5 295t214.5 78l207 -14l-2 -127q-115 4 -174 4q-88 0 -121 -49.5t-33 -188.5v-90h299v-139h-299v-885h-152v885h-129z" />
<glyph unicode="&#xfb02;" horiz-adv-x="1179" d="M856 0v1470h152v-1470h-152zM57 885v139h129v92q0 217 60.5 295t214.5 78l207 -14l-2 -127q-115 4 -174 4q-88 0 -121 -49.5t-33 -188.5v-90h299v-139h-299v-885h-152v885h-129z" />
<glyph unicode="&#xfb03;" horiz-adv-x="1851" d="M1534 0v1024h151v-1024h-151zM1534 1255v179h151v-179h-151zM741 885v139h129v92q0 217 60.5 295t214.5 78l207 -14l-2 -127q-115 4 -174 4q-88 0 -121 -49.5t-33 -188.5v-90h299v-139h-299v-885h-152v885h-129zM57 885v139h129v92q0 217 60.5 295t214.5 78l207 -14 l-2 -127q-115 4 -174 4q-88 0 -121 -49.5t-33 -188.5v-90h299v-139h-299v-885h-152v885h-129z" />
<glyph unicode="&#xfb04;" horiz-adv-x="1863" d="M1540 0v1470h152v-1470h-152zM741 885v139h129v92q0 217 60.5 295t214.5 78l207 -14l-2 -127q-115 4 -174 4q-88 0 -121 -49.5t-33 -188.5v-90h299v-139h-299v-885h-152v885h-129zM57 885v139h129v92q0 217 60.5 295t214.5 78l207 -14l-2 -127q-115 4 -174 4 q-88 0 -121 -49.5t-33 -188.5v-90h299v-139h-299v-885h-152v885h-129z" />
<glyph horiz-adv-x="481" />
</font>
</defs>
</svg>
