<?xml version="1.0" standalone="no"?>
<!DOCTYPE svg PUBLIC "-//W3C//DTD SVG 1.1//EN" "http://www.w3.org/Graphics/SVG/1.1/DTD/svg11.dtd" >
<svg xmlns="http://www.w3.org/2000/svg">
<metadata>
This is a custom SVG webfont generated by Font Squirrel.
Copyright   : Copyright c 20082010 by Accademia di Belle Arti di Urbino and others All rights reserved
Designer    : Accademia di Belle Arti di Urbino and others
Foundry     : Accademia di Belle Arti di Urbino and others
Foundry URL : wwwcampivisivinet
</metadata>
<defs>
<font id="TitilliumText25L250wt" horiz-adv-x="1085" >
<font-face units-per-em="2048" ascent="1536" descent="-512" />
<missing-glyph horiz-adv-x="481" />
<glyph unicode=" "  horiz-adv-x="481" />
<glyph unicode="&#x09;" horiz-adv-x="481" />
<glyph unicode="&#xa0;" horiz-adv-x="481" />
<glyph unicode="!" d="M485 0v207h136v-207h-136zM487 1432h131l-4 -971h-122z" />
<glyph unicode="&#x22;" horiz-adv-x="612" d="M94 995v435h119l-2 -435h-117zM395 1430h121l-2 -435h-117z" />
<glyph unicode="#" d="M20 377v106h234v402h-234v106h234v375h115v-375h342v375h114v-375h234v-106h-234v-402h234v-106h-234v-377h-114v377h-342v-377h-115v377h-234zM369 483h342v402h-342v-402z" />
<glyph unicode="$" d="M113 1036q0 360 442 361q31 0 47 -2l31 227h92l-31 -233l256 -29l-10 -113q-139 18 -260 29l-68 -520q199 -43 284 -117t85 -242q0 -219 -109.5 -316t-322.5 -97h-35l-31 -236q-92 6 -92 14l29 228l-291 33l12 110q158 -20 293 -29l72 551q-213 43 -303 119t-90 262z M238 1040q0 -129 62 -181t222 -85l66 508h-33q-317 0 -317 -242zM528 100h19q158 0 233.5 68.5t75.5 224.5q0 111 -57.5 161t-200.5 83z" />
<glyph unicode="%" d="M45 1159q0 143 55 211t172 68q115 0 170.5 -69t55.5 -212q0 -287 -226 -287q-227 0 -227 289zM150 1159q0 -102 26.5 -150t96 -48t96 47t26.5 149q0 100 -26.5 145.5t-96 45.5t-96 -45.5t-26.5 -143.5zM297 39l438 1393l88 -35l-436 -1393zM618 289q0 143 55.5 210.5 t172.5 67.5q227 0 227 -280q0 -287 -227.5 -287t-227.5 289zM723 289q0 -100 26.5 -149.5t96 -49.5t96.5 48t27 148.5t-27 145.5t-96 45q-68 0 -95.5 -45t-27.5 -143z" />
<glyph unicode="&#x26;" horiz-adv-x="1433" d="M104 420q0 172 78 264t244 150q-66 76 -85 136t-19 156q0 139 89 222.5t251 83.5q172 0 255.5 -83t83.5 -231q0 -143 -73.5 -227t-247.5 -158l328 -325q41 135 59 284l121 -2q-29 -221 -86 -364l272 -265l-78 -86l-254 246q-82 -131 -192.5 -189.5t-267.5 -58.5 q-477 0 -478 447zM229 422q1 -332 357 -332q125 0 213 50t151 163l-442 445q-152 -45 -215.5 -118t-63.5 -208zM444 1116q0 -147 93 -239l63 -64q156 61 216.5 123.5t60.5 175.5q0 205 -215 205q-218 0 -218 -201z" />
<glyph unicode="'" horiz-adv-x="204" d="M35 1425h129l-10 -450h-115z" />
<glyph unicode="(" horiz-adv-x="532" d="M88 616.5q0 182.5 50 411.5t100 369l49 139h129q-23 -59 -54.5 -158.5t-86 -344.5t-54.5 -417q0 -170 49 -388t98 -351l48 -133h-129q-23 51 -55.5 139t-88 319.5t-55.5 414z" />
<glyph unicode=")" horiz-adv-x="532" d="M88 -256q23 57 54.5 152.5t86 333t54.5 407.5q0 172 -48.5 396t-97.5 364l-49 139h129q23 -55 55.5 -147.5t88 -331t55.5 -420.5t-50.5 -405.5t-99.5 -355.5l-49 -132h-129z" />
<glyph unicode="*" d="M262 938l223 162l-219 162l53 73l220 -159l86 258l88 -29l-84 -262h270v-90h-274l84 -260l-86 -27l-86 262l-222 -162z" />
<glyph unicode="+" horiz-adv-x="901" d="M-68 477v115h453v452h119v-452h457v-115h-457v-457h-119v457h-453z" />
<glyph unicode="," horiz-adv-x="348" d="M70 -252l90 455h135l-109 -455h-116z" />
<glyph unicode="-" horiz-adv-x="901" d="M127 516v119h645v-119h-645z" />
<glyph unicode="." horiz-adv-x="507" d="M174 0v207h135v-207h-135z" />
<glyph unicode="/" d="M197 29l569 1417l117 -43l-572 -1417z" />
<glyph unicode="0" d="M55 651q0 209 32 351.5t97.5 222.5t150.5 113.5t206 33.5q250 0 367.5 -156.5t117.5 -564.5q0 -371 -122 -521t-361 -150q-244 0 -366 148t-122 523zM190 649q0 -217 43 -340t116 -166t194 -43q182 0 266 117t84 434q0 236 -39 369t-112.5 183t-200.5 50 q-186 0 -268.5 -128t-82.5 -476z" />
<glyph unicode="1" d="M152 1069l423 283h121v-1352h-125v1208l-360 -239z" />
<glyph unicode="2" d="M119 0v117l420 436q100 104 146 158.5t86 134.5t40 160q0 133 -77 189t-236 56q-68 0 -156 -12t-143 -25l-56 -12l-12 117q197 53 387 53q213 0 318.5 -84t105.5 -272q0 -141 -61.5 -245.5t-210.5 -254.5l-381 -395h692v-121h-862z" />
<glyph unicode="3" d="M102 27l17 116q219 -43 420 -43q315 2 315 275q0 260 -299 270h-274v117h272q92 0 178 69.5t86 184.5q0 129 -67.5 182t-227.5 53q-84 0 -179 -9t-147 -19l-53 -11l-16 113q205 47 399 47q229 0 325.5 -82t96.5 -264q0 -53 -14 -100t-33.5 -77t-48.5 -55.5t-49.5 -37 t-43 -23.5t-24.5 -12q125 -41 187.5 -111.5t62.5 -228.5q0 -203 -106.5 -302t-329.5 -99q-96 0 -208 12t-175 23z" />
<glyph unicode="4" d="M61 266v105l400 981h137l-391 -965h532v438h127v-438h181v-121h-181v-272h-127v272h-678z" />
<glyph unicode="5" d="M106 37l17 115q236 -49 420 -50q150 0 236.5 89.5t86.5 252.5q0 285 -309 285q-74 0 -156 -22.5t-127 -46.5l-45 -23l-106 18l39 697h778v-121h-661l-37 -471q166 88 325 88q430 0 430 -399q0 -229 -117.5 -347t-332.5 -118q-90 0 -200.5 13t-175.5 27z" />
<glyph unicode="6" d="M74 684q0 688 518 688q76 0 167 -6t143 -13l52 -7l-12 -117q-178 25 -350 24q-186 0 -285.5 -128t-101.5 -371l54 20q54 20 144.5 43t161.5 23q451 0 451 -414q0 -213 -122 -329.5t-347 -116.5q-473 0 -473 704zM203 639q4 -250 86 -395.5t258 -145.5q164 0 251 83 t87 245q0 150 -86 223.5t-242 73.5q-76 -2 -164 -23.5t-139 -41.5z" />
<glyph unicode="7" d="M115 1231v121h833v-181l-532 -1194l-119 39l520 1168v47h-702z" />
<glyph unicode="8" d="M45 344q0 150 61.5 225.5t188.5 139.5q-117 53 -172 123.5t-55 195.5q0 172 127 258t354 86t357 -87t130 -259q0 -127 -57 -197.5t-188 -119.5q131 -49 198.5 -126t67.5 -216q0 -387 -508 -387q-225 0 -364.5 85t-139.5 279zM182 362q0 -262 367 -262q375 0 375 275 q0 125 -68 180t-203 92h-225q-123 -33 -184.5 -98.5t-61.5 -186.5zM203 1016q0 -102 54 -160.5t171 -95.5h225q125 35 186.5 94t61.5 160q0 239 -352 239q-170 0 -258 -54t-88 -183z" />
<glyph unicode="9" d="M80 924q0 207 125 327.5t336 120.5q481 0 481 -704q0 -375 -133 -531.5t-393 -156.5q-76 0 -167 7t-144 14l-52 7l12 115q178 -25 351 -25q393 0 395 496q-215 -80 -375 -80q-436 0 -436 410zM211 923.5q0 -151.5 78.5 -222t236.5 -70.5q66 0 158 20.5t151 39.5l58 20 q-10 543 -352 542q-152 0 -241 -89t-89 -240.5z" />
<glyph unicode=":" horiz-adv-x="333" d="M135 0v207h135v-207h-135zM135 676v209h135v-209h-135z" />
<glyph unicode=";" horiz-adv-x="385" d="M59 -248l95 461h137l-121 -461h-111zM143 676v209h136v-209h-136z" />
<glyph unicode="&#x3c;" d="M129 573v127l711 445v-131l-594 -373l594 -391v-135q-27 14 -177.5 111.5t-322.5 210t-211 136.5z" />
<glyph unicode="=" d="M74 696v115h925v-115h-925zM76 326v114h925v-114h-925z" />
<glyph unicode="&#x3e;" d="M129 115v135l594 391l-594 373v131l711 -445v-127q-43 -27 -360.5 -234.5t-350.5 -223.5z" />
<glyph unicode="?" horiz-adv-x="790" d="M18 1399q231 55 342 55q213 0 317.5 -79t104.5 -265q0 -96 -41 -177t-98 -136.5t-115.5 -104.5t-99.5 -104.5t-41 -110.5v-78h-129v84q0 72 41 136.5t98.5 115.5t115.5 103.5t99 120t41 143.5q0 127 -70.5 178t-226.5 51q-43 0 -123.5 -13t-140.5 -27l-59 -13zM256 2v207 h135v-207h-135z" />
<glyph unicode="@" horiz-adv-x="2017" d="M113 535q0 498 229 720t690 222q459 0 666 -208t207 -644v-35q0 -164 -17.5 -277.5t-44 -178t-75 -99.5t-95.5 -45t-119 -10q-98 0 -149 22.5t-80 95.5q-221 -117 -371 -116q-55 0 -98 8t-94 38.5t-85 85t-56.5 151.5t-22.5 233q0 276 92 410t328 134q45 0 108.5 -13 t103.5 -27l40 -13v35h121v-410q0 -256 14 -361.5t44 -133t105 -27.5q61 0 95 12.5t68 59.5t47.5 150.5t13.5 275.5v37q0 389 -172 562t-574 173q-410 0 -602 -191.5t-192 -635.5q0 -465 185 -648.5t609 -183.5l293 21l6 -117q-201 -20 -299 -21q-238 0 -401.5 45 t-283.5 151.5t-177 292t-57 460.5zM721 492q0 -125 20.5 -208t59.5 -121t74.5 -51.5t82.5 -13.5q141 0 332 101q-20 109 -20 385v297q-135 47 -236 47q-182 0 -247.5 -102.5t-65.5 -333.5z" />
<glyph unicode="A" horiz-adv-x="1236" d="M63 0l410 1427h297l404 -1425h-127l-119 387h-623l-115 -389h-127zM336 510h563l-227 801h-107z" />
<glyph unicode="B" horiz-adv-x="1271" d="M195 0v1427h503q418 0 418 -350q0 -262 -186 -342q235 -76 235 -332q0 -73 -12.5 -131.5t-37.5 -103.5t-63 -76q-112 -92 -323 -92h-534zM319 117h406q151 -1 231 65q40 33 60 89.5t20 136.5q0 260 -323 260h-394v-551zM319 782h394q143 0 208.5 71t65.5 212 q0 131 -70.5 188.5t-222.5 57.5h-375v-529z" />
<glyph unicode="C" horiz-adv-x="1097" d="M109 709q0 188 21.5 315t76.5 228.5t158.5 148.5t259.5 47q84 0 181 -11.5t151 -21.5l55 -10l-8 -117q-217 39 -369 39q-125 0 -205 -38t-121 -124t-55 -189.5t-14 -266.5q0 -127 8 -215t32.5 -167t68.5 -125t116 -73t172 -27q59 0 151.5 9.5t153.5 18.5l62 9l6 -114 q-223 -45 -385 -45q-156 0 -259.5 47t-158.5 146t-76.5 225t-21.5 311z" />
<glyph unicode="D" horiz-adv-x="1323" d="M195 0v1427h514q508 0 508 -692q0 -735 -508 -735h-514zM319 119h390q106 0 183 52t118 144.5t58 194.5t17 225q0 573 -376 574h-390v-1190z" />
<glyph unicode="E" horiz-adv-x="1161" d="M195 0v1427h852v-118h-728v-523h605v-118h-605v-549h728v-119h-852z" />
<glyph unicode="F" horiz-adv-x="1140" d="M195 0v1427h854v-118h-730v-588h607v-119h-607v-602h-124z" />
<glyph unicode="G" horiz-adv-x="1251" d="M113 711q0 371 118.5 554t423.5 183q96 0 211 -13.5t182 -26.5l66 -13l-6 -115q-256 47 -442 47q-248 0 -335 -147.5t-87 -468.5q0 -319 87 -465t333 -146q57 0 136 8.5t134 16.5l55 8v471h-262v117h387v-690q-291 -51 -457 -51q-305 0 -424.5 181t-119.5 550z" />
<glyph unicode="H" horiz-adv-x="1411" d="M195 0v1427h124v-649h773v649h125v-1427h-125v659h-773v-659h-124z" />
<glyph unicode="I" horiz-adv-x="489" d="M182 0v1427h125v-1427h-125z" />
<glyph unicode="J" horiz-adv-x="626" d="M70 -31q59 0 88.5 2t63.5 10.5t48.5 25t27.5 47t16 74.5t3 112v1190h127q0 -217 1 -604.5t1 -606.5q0 -86 -9 -147.5t-31.5 -102.5t-48 -64.5t-75 -34.5t-93.5 -14t-119 -3v116z" />
<glyph unicode="K" horiz-adv-x="1220" d="M195 0v1427h124v-667l244 4l395 663h148l-430 -714l457 -713h-152l-414 643l-248 -4v-639h-124z" />
<glyph unicode="L" horiz-adv-x="1062" d="M195 0v1427h124v-1306h652v-121h-776z" />
<glyph unicode="M" horiz-adv-x="1740" d="M195 0v1427h229l446 -1243l449 1243h227v-1427h-125v1286h-28l-451 -1239h-147l-447 1239h-29v-1286h-124z" />
<glyph unicode="N" horiz-adv-x="1413" d="M195 0v1427h241l608 -1286h50v1286h127v-1427h-240l-614 1286h-48v-1286h-124z" />
<glyph unicode="O" horiz-adv-x="1337" d="M113 707q0 375 120.5 558t434 183t435.5 -182.5t122 -558.5q0 -385 -120 -556t-437 -171q-315 0 -435 175t-120 552zM244 707q0 -160 17.5 -265.5t62.5 -186.5t129 -118t215 -37q254 0 340 138.5t86 468.5q0 319 -90.5 469.5t-335.5 150.5q-248 0 -336 -149.5t-88 -470.5 z" />
<glyph unicode="P" horiz-adv-x="1247" d="M195 0v1427h518q227 0 334.5 -108.5t107.5 -337.5q0 -485 -442 -485h-394v-496h-124zM319 616h394q313 0 313 365q0 170 -74.5 249t-238.5 79h-394v-693z" />
<glyph unicode="Q" horiz-adv-x="1337" d="M113 707q0 375 120.5 558t434 183t435.5 -182.5t122 -558.5q0 -268 -53.5 -427t-186.5 -233l174 -283l-119 -57l-180 295q-82 -22 -183 -22h-9q-315 0 -435 175t-120 552zM244 707q0 -160 17.5 -265.5t62.5 -186.5t129 -118t215 -37q254 0 340 138.5t86 468.5 q0 319 -90.5 469.5t-335.5 150.5q-248 0 -336 -149.5t-88 -470.5z" />
<glyph unicode="R" horiz-adv-x="1282" d="M195 0v1427h520q225 0 333.5 -101t108.5 -322q0 -344 -274 -416l293 -588h-142l-280 559h-435v-559h-124zM319 678h396q170 0 240.5 84t70.5 241.5t-76 231.5t-235 74h-396v-631z" />
<glyph unicode="S" horiz-adv-x="1093" d="M96 1077q0 375 459 375q70 0 173 -9t171 -20l68 -10l-11 -117q-283 35 -401 35q-330 0 -330 -250q0 -145 75 -197.5t286 -92.5q225 -45 318 -121t93 -256q0 -227 -113.5 -328.5t-334.5 -101.5q-70 0 -178.5 9t-183.5 19l-74 11l12 116q276 -35 422 -35q164 0 242.5 71 t78.5 233q0 127 -70.5 179t-258.5 87q-121 23 -193 46t-134 67t-89 115t-27 175z" />
<glyph unicode="T" horiz-adv-x="1013" d="M-6 1309v118h1024v-118h-447v-1309h-125v1309h-452z" />
<glyph unicode="U" horiz-adv-x="1312" d="M168 418v1009h127v-1009q0 -315 354 -316q180 0 274.5 73t94.5 243v1009h125v-1009q0 -231 -124 -333.5t-370 -102.5q-238 0 -359.5 103t-121.5 333z" />
<glyph unicode="V" horiz-adv-x="1202" d="M63 1427h130l356 -1308h113l348 1308h129l-379 -1427h-309z" />
<glyph unicode="W" horiz-adv-x="1820" d="M82 1427h127l272 -1302h68l291 1288h141l299 -1288h66l266 1302h127l-299 -1427h-252l-279 1237l-268 -1237h-252z" />
<glyph unicode="X" horiz-adv-x="1189" d="M70 0l442 709l-442 718h143l383 -622l381 622h143l-436 -718l436 -709h-143l-379 616l-385 -616h-143z" />
<glyph unicode="Y" horiz-adv-x="1122" d="M43 1427h141l379 -673l373 673h141l-450 -815v-612h-127v612z" />
<glyph unicode="Z" horiz-adv-x="1167" d="M123 -2v174l774 1092v45h-774v118h921v-174l-774 -1093v-41h774v-121h-921z" />
<glyph unicode="[" horiz-adv-x="614" d="M90 -252v1786h408v-117h-285v-1552h285v-117h-408z" />
<glyph unicode="\" horiz-adv-x="1093" d="M164 1395l131 55l625 -1415l-129 -53z" />
<glyph unicode="]" horiz-adv-x="614" d="M90 -135h285v1552h-285v117h408v-1786h-408v117z" />
<glyph unicode="^" d="M115 672l354 680h129l371 -680h-135l-299 557l-287 -557h-133z" />
<glyph unicode="_" horiz-adv-x="1064" d="M55 -45h877v-115h-877v115z" />
<glyph unicode="`" horiz-adv-x="466" d="M6 1413l45 109l426 -195l-41 -96z" />
<glyph unicode="a" horiz-adv-x="1064" d="M104 289q0 141 73 211.5t229 87.5l348 35v92q0 113 -50.5 164t-150.5 51q-66 0 -162 -7.5t-161 -14.5l-64 -7l-6 100q236 41 401 41h2q311 0 311 -327v-545q8 -76 134 -90l-7 -98q-158 0 -231 81q-191 -83 -380 -83h-5q-137 0 -209 78.5t-72 230.5zM231 291 q0 -205 170 -205q72 0 160 17.5t140 34.5l53 18v370l-334 -34q-100 -8 -144.5 -57.5t-44.5 -143.5z" />
<glyph unicode="b" horiz-adv-x="1105" d="M188 0v1479h123v-508q160 71 320 71q205 0 284.5 -116.5t79.5 -395.5q0 -305 -101 -427.5t-376 -122.5q-57 0 -139 5t-136 10zM311 102q144 -12 205 -12q215 0 283.5 98.5t68.5 339.5q0 219 -51 310.5t-194 91.5q-68 0 -146 -16.5t-122 -32.5l-44 -17v-762z" />
<glyph unicode="c" horiz-adv-x="894" d="M111 530q0 281 96 396.5t325 115.5q39 0 106 -6t114 -12l47 -6l-4 -109q-164 18 -242 19q-182 0 -249.5 -87t-67.5 -311q0 -248 62 -342t255 -94l244 19l6 -109q-177 -24 -266 -24h-7q-244 0 -331.5 120.5t-87.5 429.5z" />
<glyph unicode="d" horiz-adv-x="1107" d="M111 504q0 276 97 407t331 131q102 0 258 -24v416h123v-1434h-123v74q-162 -94 -328 -94q-59 0 -104.5 9t-95.5 41.5t-82.5 88t-54 154t-21.5 231.5zM233 500q0 -129 20.5 -214t59.5 -125t78 -54.5t90 -14.5q68 0 147 22.5t124 44.5l45 21v729q-225 23 -254 23 q-174 0 -242 -104.5t-68 -327.5z" />
<glyph unicode="e" horiz-adv-x="1038" d="M111 508q0 534 419 534h2q203 0 303.5 -115.5t100.5 -367.5l-4 -98h-696q0 -188 64 -278.5t220 -90.5q66 0 160 5t155 9l60 5l4 -103q-223 -28 -380 -28h-11q-221 2 -309 131t-88 397zM236 563h577q0 201 -66.5 286t-214.5 85q-296 0 -296 -371z" />
<glyph unicode="f" horiz-adv-x="679" d="M61 911v113h136v104q0 217 59 294t209 77l201 -12l-2 -103q-121 4 -181 5q-94 0 -130 -53.5t-36 -209.5v-102h312v-113h-312v-911h-120v911h-136z" />
<glyph unicode="g" horiz-adv-x="1048" d="M102 -170q0 86 38 138t130 120q-53 33 -53 139q0 16 16.5 56.5t32.5 71.5l17 32q-166 70 -166 309q0 348 368 348q47 0 101.5 -6t84.5 -13l29 -7l295 6v-109l-200 5q72 -72 71 -224q0 -190 -92 -266t-295 -76q-59 0 -104 8q-41 -100 -41 -126q0 -68 40 -84.5t220 -16.5 q217 0 301 -58.5t84 -238.5q0 -168 -112 -245.5t-337 -77.5q-246 0 -337 67.5t-91 247.5zM225 -162q0 -123 61.5 -170t245.5 -47q168 0 244 50t76 163q0 123 -55 158t-211 35l-232 8q-76 -53 -102.5 -93t-26.5 -104zM240 696q0 -125 53 -182t186 -57q143 0 202.5 53 t59.5 186q0 145 -55 195.5t-201 50.5q-127 0 -186 -56.5t-59 -189.5z" />
<glyph unicode="h" horiz-adv-x="1157" d="M188 0v1479h123v-508q172 71 328 71h4q205 0 273.5 -108.5t68.5 -401.5v-532h-123v530q0 233 -44 316.5t-189 83.5q-68 0 -148 -16.5t-125 -33.5l-45 -18v-862h-123z" />
<glyph unicode="i" horiz-adv-x="466" d="M172 0v1024h123v-1024h-123zM172 1280v154h123v-154h-123z" />
<glyph unicode="j" horiz-adv-x="495" d="M-63 -348q166 92 215 159.5t49 208.5v1004h123v-1006q0 -182 -67 -275t-269 -196zM201 1284v154h123v-154h-123z" />
<glyph unicode="k" horiz-adv-x="1007" d="M188 0v1479h123v-873l170 6l332 412h139l-360 -469l364 -555h-141l-332 492l-172 -7v-485h-123z" />
<glyph unicode="l" horiz-adv-x="483" d="M180 0v1479h123v-1479h-123z" />
<glyph unicode="m" horiz-adv-x="1777" d="M188 0v1024h123v-74q137 82 287 88q29 2 53 2q36 0 62 -4q117 -14 172 -88q252 94 377 94q205 0 273.5 -107.5t68.5 -402.5v-532h-123v502q0 256 -42 342t-192 86q-68 0 -146.5 -21.5t-116.5 -39t-48 -23.5q29 -84 29 -314v-532h-121v528q0 240 -44 321t-192 81 q-68 0 -142.5 -21.5t-114.5 -43.5l-40 -21v-844h-123z" />
<glyph unicode="n" horiz-adv-x="1167" d="M188 0v1024h123v-76q172 94 332 94q205 0 273.5 -108.5t68.5 -401.5v-532h-121v532q0 233 -45 316.5t-192 83.5q-72 0 -151 -21.5t-122 -43.5l-43 -21v-846h-123z" />
<glyph unicode="o" horiz-adv-x="1079" d="M111 528q0 274 98 394t334 120q223 0 324.5 -123.5t101.5 -392.5q0 -291 -90.5 -418.5t-335.5 -127.5q-250 0 -341 123.5t-91 424.5zM236 528q0 -248 59.5 -343t247.5 -95q186 0 242.5 98.5t56.5 337.5q0 217 -71 311.5t-228 94.5q-176 0 -241.5 -87t-65.5 -317z" />
<glyph unicode="p" horiz-adv-x="1107" d="M188 -461v1485h123v-78q160 96 324 96q193 0 278.5 -123.5t85.5 -394.5q0 -295 -102 -419.5t-340 -124.5q-133 0 -246 26v-467h-123zM311 115q139 -25 240 -25q178 0 249.5 99.5t71.5 338.5q0 215 -63 309.5t-186 94.5q-66 0 -144 -23.5t-123 -46.5l-45 -22v-725z" />
<glyph unicode="q" horiz-adv-x="1099" d="M111 492q0 287 103 418.5t364 131.5l333 -18v-1485h-123v506q-124 -65 -284 -65q-213 0 -303 126.5t-90 385.5zM236 496q0 -205 60 -305.5t208 -100.5q68 0 139.5 18.5t108.5 35.5l36 18v760q-142 10 -210 10q-197 0 -269.5 -102.5t-72.5 -333.5z" />
<glyph unicode="r" horiz-adv-x="727" d="M188 0v1024h123v-145q18 14 52 36.5t132.5 67.5t190.5 61v-124q-86 -16 -180 -55.5t-145 -69.5l-50 -31v-764h-123z" />
<glyph unicode="s" horiz-adv-x="995" d="M117 754q0 154 103.5 221t256.5 67q70 0 161 -9t147 -17l57 -8l-4 -109q-221 33 -355 33q-241 0 -241 -173q0 -81 52 -115t214 -58q211 -35 290 -91.5t79 -197.5q0 -172 -100.5 -244.5t-295.5 -72.5q-55 0 -143 9t-149 18l-60 9l8 109q229 -35 334 -35q143 0 212 43 t69 158q0 88 -54.5 121.5t-226.5 60.5q-199 31 -276.5 86t-77.5 195z" />
<glyph unicode="t" horiz-adv-x="749" d="M61 911v113h152v322h123v-322h342v-113h-342v-497q0 -199 27.5 -260.5t134.5 -61.5l190 14l6 -108q-135 -20 -207 -21q-154 0 -214 77t-60 294v563h-152z" />
<glyph unicode="u" horiz-adv-x="1142" d="M174 489v535h121v-530q0 -240 44 -322t191 -82q68 0 144 21.5t117 43.5l40 21v848h121v-1024h-121v72q-160 -92 -315 -92q-209 0 -275.5 106.5t-66.5 402.5z" />
<glyph unicode="v" horiz-adv-x="985" d="M57 1024h129l267 -918h79l269 918h127l-303 -1024h-269z" />
<glyph unicode="w" horiz-adv-x="1552" d="M63 1024h125l228 -913h28l267 893h131l264 -893h31l227 913h125l-258 -1024h-215l-242 844l-242 -844h-213z" />
<glyph unicode="x" horiz-adv-x="940" d="M63 0l330 512l-330 512h136l270 -422l272 422h136l-330 -512l330 -512h-138l-270 420l-270 -420h-136z" />
<glyph unicode="y" horiz-adv-x="985" d="M57 1024h125l273 -907h73l275 907h125l-443 -1485h-123l136 461h-140z" />
<glyph unicode="z" horiz-adv-x="983" d="M111 0v111l612 802h-612v111h759v-111l-610 -802h610v-111h-759z" />
<glyph unicode="{" horiz-adv-x="610" d="M12 584v106q115 29 161 82t46 148q0 27 -7 124t-7 138q0 186 88 269t293 91l4 -117q-150 -8 -203 -65t-53 -184q0 -35 7 -127.5t7 -120.5q0 -129 -45 -190.5t-160 -98.5q113 -37 159 -100.5t46 -190.5q0 -12 -7 -103t-7 -136q0 -125 54 -184.5t202 -67.5l-4 -117 q-203 8 -292 92t-89 268q0 43 7 136.5t7 115.5q0 92 -46 145.5t-161 86.5z" />
<glyph unicode="|" d="M469 -209v1667h125v-1667h-125z" />
<glyph unicode="}" horiz-adv-x="610" d="M12 -143q147 8 201.5 67.5t54.5 184.5q0 43 -7 124.5t-7 114.5q0 127 46 190.5t159 100.5q-115 37 -160 98.5t-45 190.5q0 29 7 121t7 127q0 127 -53 184t-203 65l2 117q205 -8 293 -91t88 -269q0 -41 -7 -138.5t-7 -123.5q0 -94 46 -147.5t163 -82.5v-106 q-115 -33 -162 -86.5t-47 -145.5q0 -23 7 -116t7 -136q0 -184 -89 -268t-292 -92z" />
<glyph unicode="~" d="M133 662q12 12 34.5 30.5t81 48t107.5 29.5q66 0 203 -52t180 -52q35 0 84 25.5t81 49.5l32 25l14 -121q-12 -12 -32.5 -29.5t-77 -47t-103.5 -29.5q-63 0 -202.5 53t-182.5 53q-37 0 -87 -25.5t-83 -51.5l-32 -25z" />
<glyph unicode="&#xa1;" d="M487 815v207h136v-207h-136zM489 -410l5 971h122l5 -971h-132z" />
<glyph unicode="&#xa2;" horiz-adv-x="894" d="M96 508q0 221 91.5 326.5t269.5 113.5v252h110v-256l219 -20l-6 -113q-195 16 -272 16q-156 0 -218.5 -71.5t-62.5 -247.5q0 -180 61.5 -244.5t235.5 -64.5l260 14l4 -113q-133 -16 -219 -20v-250h-110v248q-193 8 -278 101t-85 329z" />
<glyph unicode="&#xa3;" d="M176 0v111h180v626h-139v109h139v131q0 244 71 330t232 86q39 0 102.5 -6.5t106.5 -13.5l43 -7v-106q-172 23 -249 22q-109 0 -147 -63.5t-38 -251.5v-121h359v-109h-359v-626h332l160 32l22 -106l-168 -37h-647z" />
<glyph unicode="&#xa4;" horiz-adv-x="1083" d="M102 164l146 141q-68 94 -68 210t66 210l-144 143l88 88l142 -145q94 66 209.5 66t210.5 -66l143 145l88 -88l-145 -143q66 -94 65.5 -210t-65.5 -210l145 -141l-88 -88l-143 143q-94 -66 -210 -65.5t-210 67.5l-142 -145zM299 516q0 -102 70 -174q72 -70 173 -70t173 70 q72 72 71.5 174t-72 172t-173 70t-172.5 -70q-70 -70 -70 -172z" />
<glyph unicode="&#xa5;" horiz-adv-x="1105" d="M35 1352h141l379 -584l373 584h143l-366 -586h303v-109h-369l-21 -41v-153h392v-111h-392v-352h-126v352h-394v111h394v153l-19 41h-377v109h310z" />
<glyph unicode="&#xa6;" d="M465 -211v762h123v-762h-123zM465 772v764h123v-764h-123z" />
<glyph unicode="&#xa7;" d="M147 543q0 82 45.5 157.5t71.5 96.5q-90 68 -90 229q0 158 98.5 235.5t280.5 77.5q59 0 141 -8t135 -15l54 -7l-6 -105q-219 27 -318 27q-135 0 -199.5 -48t-64.5 -153q0 -113 63.5 -153.5t233.5 -69.5q178 -33 255 -91.5t77 -201.5q0 -55 -19.5 -118.5t-37 -97.5 t-29.5 -50q76 -59 75 -199q0 -336 -376 -336q-57 0 -146.5 8.5t-148.5 16.5l-60 8l13 104q223 -31 335 -30q264 0 265 223q0 102 -62.5 136t-234.5 63q-184 31 -267.5 94t-83.5 207zM270 559q0 -96 59.5 -140t198.5 -67q147 -25 217 -55q4 8 16.5 32.5t26 76t13.5 94.5 q0 100 -57.5 138.5t-196.5 63.5q-150 27 -199 50q-78 -117 -78 -193z" />
<glyph unicode="&#xa8;" horiz-adv-x="466" d="M-16 1290v162h120v-162h-120zM387 1290v162h119v-162h-119z" />
<glyph unicode="&#xa9;" d="M20 889q0 229 149.5 387t373.5 158q225 0 374.5 -159t149.5 -386q0 -229 -149.5 -386t-376.5 -157q-223 0 -372 158t-149 385zM100 889q0 -195 126 -328t316.5 -133t316.5 133t126 328q0 193 -127 328t-315 135q-190 0 -316.5 -135t-126.5 -328zM309 889 q0 156 51.5 234.5t184.5 78.5l151 -12l-2 -105q-76 14 -149 15q-82 0 -107.5 -50.5t-25.5 -160.5q0 -104 28.5 -157.5t104.5 -53.5l149 14l2 -102q-80 -16 -151 -17q-131 0 -183.5 79t-52.5 237z" />
<glyph unicode="&#xaa;" horiz-adv-x="1060" d="M283 954q0 143 153 156l209 14v47q0 66 -24.5 89.5t-81.5 23.5l-213 -14l-4 63q141 16 217 17q88 0 129 -42.5t41 -138.5v-274q12 -41 75 -47l-4 -57q-66 2 -110 45q-129 -45 -244 -45q-63 0 -103 45t-40 118zM350 950q0 -94 82 -94q41 0 94.5 8t85.5 18l33 9v174 l-199 -12q-51 -4 -73.5 -28t-22.5 -75z" />
<glyph unicode="&#xab;" horiz-adv-x="1157" d="M184 459v104l371 283v-129l-264 -203l264 -223v-131zM647 459v104l371 283v-129l-264 -203l264 -223v-131z" />
<glyph unicode="&#xac;" d="M131 580v118h827v-456h-120v338h-707z" />
<glyph unicode="&#xad;" horiz-adv-x="901" d="M127 516v119h645v-119h-645z" />
<glyph unicode="&#xae;" d="M10 889q0 231 149.5 392t383 161t385 -161t151.5 -392.5t-152.5 -392t-383.5 -160.5q-233 0 -383 160t-150 393zM90 889q0 -197 130 -335t322.5 -138t322.5 138t130 335q0 199 -130 336t-322.5 137t-322.5 -137t-130 -336zM322 565v645h204q127 0 183.5 -44t56.5 -146 q0 -154 -111 -191l123 -264h-106l-117 252h-135v-252h-98zM420 903h137q59 0 86 24.5t27 88.5q0 59 -34 83.5t-108 24.5h-108v-221z" />
<glyph unicode="&#xaf;" horiz-adv-x="466" d="M-43 1305v108h578v-108h-578z" />
<glyph unicode="&#xb0;" d="M213 1155q0 127 80 206t207 79t205.5 -79t78.5 -206t-78.5 -206t-205.5 -79t-207 79t-80 206zM305 1155q0 -90 53.5 -143.5t141.5 -53.5q90 0 144 54.5t54 142.5q0 90 -54 144.5t-144 54.5q-88 0 -141.5 -54.5t-53.5 -144.5z" />
<glyph unicode="&#xb1;" d="M92 659v115h393v273h119v-273h404v-115h-404v-276h-119v276h-393zM94 137v115h914v-115h-914z" />
<glyph unicode="&#xb2;" horiz-adv-x="542" d="M49 979v98l189 191q55 55 80.5 94t25.5 86q0 84 -106 84q-29 0 -73 -5t-74 -10l-30 -6l-6 101q117 25 203 24q199 0 199 -180q0 -68 -31 -121t-98 -116l-135 -140h274v-100h-418z" />
<glyph unicode="&#xb3;" horiz-adv-x="542" d="M55 981l6 96q115 -16 209 -16q111 0 111 96q0 100 -105 100h-133v97h131q33 0 62 30.5t29 73.5q0 78 -105 78q-39 0 -87 -4t-76 -8l-27 -4l-7 96q115 20 205 20q209 0 209 -168q0 -102 -88 -155q55 -18 81 -49t26 -109q0 -197 -215 -197q-45 0 -101.5 6.5t-90.5 11.5z " />
<glyph unicode="&#xb4;" horiz-adv-x="548" d="M61 1327l426 195l48 -113l-431 -182z" />
<glyph unicode="&#xb5;" d="M166 -498v1522h123v-545q0 -231 44 -310t189 -79q68 0 143.5 21.5t116.5 43.5l41 21v848h123v-1024h-123v72q-160 -92 -315 -92q-158 0 -219 79v-557h-123z" />
<glyph unicode="&#x3bc;" d="M166 -498v1522h123v-545q0 -231 44 -310t189 -79q68 0 143.5 21.5t116.5 43.5l41 21v848h123v-1024h-123v72q-160 -92 -315 -92q-158 0 -219 79v-557h-123z" />
<glyph unicode="&#xb6;" d="M16 1061q0 164 108.5 268.5t272.5 104.5h674v-105h-168v-1329h-112v1329h-267v-1329h-112v694h-15q-164 0 -272.5 102.5t-108.5 264.5z" />
<glyph unicode="&#xb7;" horiz-adv-x="507" d="M174 520v207h135v-207h-135z" />
<glyph unicode="&#xb8;" horiz-adv-x="1705" d="M795 -420l4 82q84 -6 145 -6q92 0 92 84q0 76 -92 76h-96v186h78v-108q119 0 171 -32t52 -122q0 -172 -182 -172z" />
<glyph unicode="&#xb9;" horiz-adv-x="542" d="M68 1477l206 141h105v-639h-111v518l-149 -102z" />
<glyph unicode="&#xba;" horiz-adv-x="1077" d="M295 1073q-1 277 235 277q119 0 175.5 -66.5t56.5 -210.5q0 -283 -232 -282q-236 0 -235 282zM365 1073q0 -117 38.5 -167t126.5 -50t125 50t37 167t-37 164t-125 47t-126.5 -48t-38.5 -163z" />
<glyph unicode="&#xbb;" horiz-adv-x="1157" d="M139 160v131l262 223l-262 203v129l371 -283v-104zM602 160v131l262 223l-262 203v129l371 -283v-104z" />
<glyph unicode="&#xbf;" horiz-adv-x="790" d="M18 -86q0 96 41 177t98.5 136.5t116 104.5t99.5 104.5t41 110.5v78h129v-84q0 -72 -41 -136.5t-99.5 -115.5t-116 -103.5t-98.5 -120t-41 -143.5q0 -127 71 -178t226 -51q43 0 124 13t141 27l59 13l14 -121q-231 -55 -342 -55q-213 0 -317.5 79t-104.5 265zM410 815v207 h135v-207h-135z" />
<glyph unicode="&#xc0;" horiz-adv-x="1236" d="M66 0l409 1427h297l404 -1425h-127l-119 387h-623l-114 -389h-127zM338 510h563l-227 801h-107zM352 1792l47 113l426 -195l-43 -98z" />
<glyph unicode="&#xc1;" horiz-adv-x="1236" d="M66 0l409 1427h297l404 -1425h-127l-119 387h-623l-114 -389h-127zM338 510h563l-227 801h-107zM397 1737l426 194l47 -112l-430 -183z" />
<glyph unicode="&#xc2;" horiz-adv-x="1236" d="M66 0l409 1427h297l404 -1425h-127l-119 387h-623l-114 -389h-127zM313 1628l254 291h99l254 -291h-140l-162 184l-165 -184h-140zM338 510h563l-227 801h-107z" />
<glyph unicode="&#xc3;" horiz-adv-x="1236" d="M63 0l410 1427h297l404 -1425h-127l-119 387h-623l-115 -389h-127zM256 1786q115 119 193 119q53 0 177 -59.5t152 -59.5q18 0 56 24.5t67 49.5l29 24l33 -94q-106 -117 -183 -117q-49 0 -175 60.5t-156 60.5q-20 0 -61.5 -26.5t-72.5 -52.5l-30 -25zM336 510h563 l-227 801h-107z" />
<glyph unicode="&#xc4;" horiz-adv-x="1236" d="M66 0l409 1427h297l404 -1425h-127l-119 387h-623l-114 -389h-127zM338 510h563l-227 801h-107zM387 1700v162h119v-162h-119zM788 1700v162h119v-162h-119z" />
<glyph unicode="&#xc5;" horiz-adv-x="1236" d="M66 0l395 1378q-68 57 -68 158q0 94 62.5 149.5t163 55.5t163 -55.5t62.5 -149.5t-62 -150l394 -1384h-127l-119 387h-623l-114 -389h-127zM338 510h563l-227 801h-107zM496 1536q0 -92 86 -109h73q86 16 86 109q0 53 -32.5 82t-90 29t-90 -29t-32.5 -82z" />
<glyph unicode="&#xc6;" horiz-adv-x="1839" d="M78 0l479 1427h1174v-118h-727v-516h604v-119h-604v-555h727v-119h-852v389h-535l-133 -389h-133zM381 510h498v799h-228z" />
<glyph unicode="&#xc7;" horiz-adv-x="1099" d="M109 709q0 188 21.5 315t76.5 228.5t158.5 148.5t259.5 47q84 0 181 -11.5t151 -21.5l55 -10l-8 -117q-217 39 -369 39q-125 0 -205 -38t-121 -124t-55 -189.5t-14 -266.5q0 -127 8 -215t32.5 -167t68.5 -125t116 -73t172 -27q59 0 151.5 9.5t153.5 18.5l62 9l6 -114 q-205 -41 -365 -45v-86q119 0 171 -32t52 -122q0 -172 -182 -172l-172 12l4 82q84 -6 146 -6q92 0 92 84q0 76 -92 76h-97v166q-266 16 -362 192t-96 535z" />
<glyph unicode="&#xc8;" horiz-adv-x="1161" d="M195 0v1427h852v-118h-728v-523h605v-118h-605v-549h728v-119h-852zM377 1792l47 113l426 -195l-43 -98z" />
<glyph unicode="&#xc9;" horiz-adv-x="1171" d="M197 0v1427h852v-118h-727v-523h604v-118h-604v-549h727v-119h-852zM418 1737l426 194l47 -112l-430 -183z" />
<glyph unicode="&#xca;" horiz-adv-x="1171" d="M197 0v1427h852v-118h-727v-523h604v-118h-604v-549h727v-119h-852zM328 1628l254 291h98l254 -291h-139l-162 184l-166 -184h-139z" />
<glyph unicode="&#xcb;" horiz-adv-x="1171" d="M197 0v1427h852v-118h-727v-523h604v-118h-604v-549h727v-119h-852zM369 1700v162h118v-162h-118zM770 1700v162h121v-162h-121z" />
<glyph unicode="&#xcc;" horiz-adv-x="489" d="M-49 1792l47 113l426 -195l-43 -98zM182 0v1427h125v-1427h-125z" />
<glyph unicode="&#xcd;" horiz-adv-x="489" d="M29 1716l426 195l47 -113l-430 -182zM182 0v1427h125v-1427h-125z" />
<glyph unicode="&#xce;" horiz-adv-x="489" d="M-82 1645l275 268h108l272 -268h-145l-180 170l-180 -170h-150zM182 0v1427h125v-1427h-125z" />
<glyph unicode="&#xcf;" horiz-adv-x="489" d="M-20 1694v161h120v-161h-120zM182 0v1427h125v-1427h-125zM395 1694v161h119v-161h-119z" />
<glyph unicode="&#xd0;" horiz-adv-x="1323" d="M47 641v119h148v667h514q508 0 508 -692q0 -735 -508 -735h-514v641h-148zM319 119h390q106 0 183 52t118 144.5t58 194.5t17 225q0 573 -376 574h-390v-549h322v-119h-322v-522z" />
<glyph unicode="&#xd1;" horiz-adv-x="1406" d="M188 0v1427h242l608 -1286h49v1286h127v-1427h-237l-615 1286h-49v-1286h-125zM373 1788q102 104 180 104q49 0 160.5 -51t140.5 -51q18 0 52 20.5t60 40.5l25 21l29 -96q-92 -98 -166 -99q-47 0 -159.5 52.5t-143.5 52.5q-20 0 -57 -22.5t-64 -45.5l-27 -22z" />
<glyph unicode="&#xd2;" horiz-adv-x="1343" d="M115 707q0 375 120.5 558t434 183t435.5 -182.5t122 -558.5q0 -385 -120 -556t-437 -171q-315 0 -435 175t-120 552zM246 707q0 -160 17.5 -265.5t62.5 -186.5t129 -118t215 -37q254 0 340 138.5t86 468.5q0 319 -90.5 469.5t-335.5 150.5q-248 0 -336 -149.5t-88 -470.5 zM422 1792l47 113l426 -195l-43 -98z" />
<glyph unicode="&#xd3;" horiz-adv-x="1343" d="M115 707q0 375 120.5 558t434 183t435.5 -182.5t122 -558.5q0 -385 -120 -556t-437 -171q-315 0 -435 175t-120 552zM246 707q0 -160 17.5 -265.5t62.5 -186.5t129 -118t215 -37q254 0 340 138.5t86 468.5q0 319 -90.5 469.5t-335.5 150.5q-248 0 -336 -149.5t-88 -470.5 zM428 1737l426 194l47 -112l-430 -183z" />
<glyph unicode="&#xd4;" horiz-adv-x="1343" d="M115 707q0 375 120.5 558t434 183t435.5 -182.5t122 -558.5q0 -385 -120 -556t-437 -171q-315 0 -435 175t-120 552zM246 707q0 -160 17.5 -265.5t62.5 -186.5t129 -118t215 -37q254 0 340 138.5t86 468.5q0 319 -90.5 469.5t-335.5 150.5q-248 0 -336 -149.5t-88 -470.5 zM367 1628l254 291h98l254 -291h-139l-162 184l-166 -184h-139z" />
<glyph unicode="&#xd5;" horiz-adv-x="1343" d="M115 707q0 375 121.5 558t435 183t434.5 -181.5t121 -559.5q0 -385 -119 -556t-436.5 -171t-437 175t-119.5 552zM246 706.5q0 -321.5 87 -464t339 -142.5q254 0 339 138.5t85 468.5q0 319 -89 469.5t-335 150.5q-248 0 -337 -149.5t-89 -471zM344 1788q102 104 180 104 q49 0 161 -51t140 -51q18 0 52 20.5t60 40.5l26 21l28 -96q-92 -98 -166 -99q-47 0 -159.5 52.5t-143.5 52.5q-20 0 -57 -22.5t-64 -45.5l-26 -22z" />
<glyph unicode="&#xd6;" horiz-adv-x="1343" d="M115 707q0 375 121.5 558t435 183t434.5 -181.5t121 -559.5q0 -385 -119 -556t-436.5 -171t-437 175t-119.5 552zM246 706.5q0 -321.5 87 -464t339 -142.5q254 0 339 138.5t85 468.5q0 319 -89 469.5t-335 150.5q-248 0 -337 -149.5t-89 -471zM403 1700v162h121v-162 h-121zM807 1700v162h119v-162h-119z" />
<glyph unicode="&#xd7;" horiz-adv-x="1550" d="M383 123l397 414l-393 407l86 82l389 -408l391 408l86 -82l-395 -407l399 -414l-86 -80l-395 410l-395 -410z" />
<glyph unicode="&#xd8;" horiz-adv-x="1337" d="M113 707q0 375 120.5 558t434.5 183q160 0 268 -49l108 233l105 -43l-117 -248q193 -160 193 -634q0 -385 -120 -556t-437 -171q-143 0 -254 38l-119 -254l-102 48l120 260q-111 80 -155.5 235.5t-44.5 399.5zM244 707q0 -197 27.5 -321t99.5 -193l512 1091 q-86 43 -215 43q-248 0 -336 -149t-88 -471zM467 133q78 -33 201 -33q254 0 340 138.5t86 468.5q0 373 -121 507z" />
<glyph unicode="&#xd9;" horiz-adv-x="1312" d="M168 418v1009h127v-1009q0 -315 354 -316q180 0 274.5 73t94.5 243v1009h125v-1009q0 -231 -124 -333.5t-370 -102.5q-238 0 -359.5 103t-121.5 333zM328 1792l47 113l426 -195l-43 -98z" />
<glyph unicode="&#xda;" horiz-adv-x="1314" d="M170 418v1009h127v-1009q0 -315 354 -316q180 0 274.5 73t94.5 243v1009h125v-1009q0 -231 -124 -333.5t-370 -102.5q-238 0 -359.5 103t-121.5 333zM416 1737l426 194l47 -112l-430 -183z" />
<glyph unicode="&#xdb;" horiz-adv-x="1314" d="M170 418v1009h127v-1009q0 -315 354 -316q180 0 274.5 73t94.5 243v1009h125v-1009q0 -231 -124 -333.5t-370 -102.5q-238 0 -359.5 103t-121.5 333zM356 1628l254 291h99l254 -291h-140l-161 184l-166 -184h-140z" />
<glyph unicode="&#xdc;" horiz-adv-x="1314" d="M172 418v1009h125v-1009q0 -315 354 -316q180 0 274.5 73t94.5 243v1009h127v-1009q0 -231 -125 -333.5t-371 -102.5q-236 0 -357.5 102t-121.5 334zM430 1700v162h119v-162h-119zM831 1700v162h121v-162h-121z" />
<glyph unicode="&#xdd;" horiz-adv-x="1105" d="M35 1427h141l379 -673l373 673h141l-451 -815v-612h-126v612zM301 1737l426 194l47 -112l-430 -183z" />
<glyph unicode="&#xde;" horiz-adv-x="1216" d="M170 0v1427h125v-237h393q229 0 337 -108.5t108 -338.5q0 -233 -111 -359t-334 -126h-393v-258h-125zM295 379h393q313 0 313 364q0 170 -74.5 249t-238.5 79h-393v-692z" />
<glyph unicode="&#xdf;" horiz-adv-x="1226" d="M188 0v1128q0 205 91.5 288t293.5 83q207 0 293 -66.5t86 -220.5q0 -203 -147 -264q-88 -35 -111.5 -52t-23.5 -48q0 -25 29.5 -49.5t146.5 -91.5q98 -55 128 -73t75 -52.5t56 -61t11 -65.5q0 -266 -99 -369.5t-388 -103.5l-180 18l8 104q137 -8 172 -8q117 0 188.5 18.5 t108.5 65.5t49 105.5t12 158.5q0 29 -50 66t-183 108q-135 72 -174 114t-39 109.5t38.5 104.5t133.5 78q70 29 90 71t20 111q0 100 -55 139t-194.5 39t-200 -56t-60.5 -220v-1108h-125z" />
<glyph unicode="&#xe0;" horiz-adv-x="1069" d="M94 289q0 141 73 211.5t228 87.5l348 35v92q0 113 -50 164t-150 51q-66 0 -162 -7.5t-161 -14.5l-64 -7l-6 100q236 41 401 41q313 1 313 -327v-545q8 -76 133 -90l-6 -98q-158 0 -231 81q-193 -84 -385 -83q-137 0 -209 78.5t-72 230.5zM221 291q0 -205 170 -205 q72 0 160 17.5t140 34.5l52 18v370l-333 -34q-100 -8 -144.5 -57.5t-44.5 -143.5zM256 1413l45 109l426 -195l-41 -96z" />
<glyph unicode="&#xe1;" horiz-adv-x="1069" d="M94 289q0 141 73 211.5t228 87.5l348 35v92q0 113 -50 164t-150 51q-66 0 -162 -7.5t-161 -14.5l-64 -7l-6 100q236 41 401 41q313 1 313 -327v-545q8 -76 133 -90l-6 -98q-158 0 -231 81q-193 -84 -385 -83q-137 0 -209 78.5t-72 230.5zM221 291q0 -205 170 -205 q72 0 160 17.5t140 34.5l52 18v370l-333 -34q-100 -8 -144.5 -57.5t-44.5 -143.5zM258 1327l426 195l47 -113l-430 -182z" />
<glyph unicode="&#xe2;" horiz-adv-x="1069" d="M94 289q0 141 73 211.5t228 87.5l348 35v92q0 113 -50 164t-150 51q-66 0 -162 -7.5t-161 -14.5l-64 -7l-6 100q236 41 401 41q313 1 313 -327v-545q8 -76 133 -90l-6 -98q-158 0 -231 81q-193 -84 -385 -83q-137 0 -209 78.5t-72 230.5zM197 1219l254 290h98l254 -290 h-139l-162 184l-166 -184h-139zM221 291q0 -205 170 -205q72 0 160 17.5t140 34.5l52 18v370l-333 -34q-100 -8 -144.5 -57.5t-44.5 -143.5z" />
<glyph unicode="&#xe3;" horiz-adv-x="1069" d="M94 289q0 141 73 212.5t228 86.5l348 35v92q0 211 -196 211q-66 0 -163 -8.5t-162 -15.5l-64 -7l-6 109q240 39 399.5 38.5t237 -80t77.5 -247.5v-535q4 -78 131 -92l-6 -106q-162 0 -229 77q-186 -80 -395 -79q-129 0 -201 79.5t-72 229.5zM174 1378q102 104 180 105 q49 0 161 -51.5t140 -51.5q18 0 52 20.5t60 41.5l26 20l28 -96q-92 -98 -166 -98q-47 0 -159.5 52t-143.5 52q-20 0 -57 -22.5t-64 -44.5l-26 -23zM221 291q0 -98 42 -150.5t118 -52.5q78 0 168 17.5t142 34.5l52 18v362l-331 -31q-190 -16 -191 -198z" />
<glyph unicode="&#xe4;" horiz-adv-x="1069" d="M94 289q0 141 73 212.5t228 86.5l348 35v92q0 211 -196 211q-66 0 -163 -8.5t-162 -15.5l-64 -7l-6 109q240 39 399.5 38.5t237 -80t77.5 -247.5v-535q4 -78 131 -92l-6 -106q-162 0 -229 77q-186 -80 -395 -79q-129 0 -201 79.5t-72 229.5zM221 291q0 -98 42 -150.5 t118 -52.5q78 0 168 17.5t142 34.5l52 18v362l-331 -31q-190 -16 -191 -198zM256 1290v162h119v-162h-119zM657 1290v162h119v-162h-119z" />
<glyph unicode="&#xe5;" horiz-adv-x="1069" d="M94 289q0 141 73 211.5t228 87.5l348 35v92q0 113 -50 164t-150 51q-66 0 -162 -7.5t-161 -14.5l-64 -7l-6 100q236 41 401 41q313 1 313 -327v-545q8 -76 133 -90l-6 -98q-158 0 -231 81q-193 -84 -385 -83q-137 0 -209 78.5t-72 230.5zM221 291q0 -205 170 -205 q72 0 160 17.5t140 34.5l52 18v370l-333 -34q-100 -8 -144.5 -57.5t-44.5 -143.5zM317 1325q0 86 59.5 145.5t147.5 59.5q86 0 145.5 -59.5t59.5 -145.5q0 -88 -59.5 -147.5t-145.5 -59.5q-88 0 -147.5 59.5t-59.5 147.5zM414 1325q0 -47 32.5 -81t77.5 -34t78 34t33 81 t-33 80t-78 33t-77.5 -33t-32.5 -80z" />
<glyph unicode="&#xe6;" horiz-adv-x="1695" d="M111 289q0 164 82.5 224t289.5 83l277 27v92q0 211 -197 211q-68 0 -165 -5.5t-160 -10.5l-64 -5l-4 111q238 27 397 26q221 0 279 -165q100 166 334 165q203 0 303 -115.5t100 -367.5l-6 -98h-696q2 -188 66 -278.5t220 -90.5q66 0 159 5t154 9l60 5l4 -103 q-229 -29 -389 -28q-203 0 -299 114l-70 -31q-188 -84 -403 -83q-272 0 -272 309zM238 291q0 -98 41.5 -150.5t117.5 -52.5q182 0 406 86q-47 113 -47 346l-330 -31q-98 -10 -143 -56t-45 -142zM881 563h577q0 199 -66.5 285t-211.5 86q-299 0 -299 -371z" />
<glyph unicode="&#xe7;" horiz-adv-x="894" d="M111 530q0 281 96 396.5t325 115.5q39 0 106 -6t114 -12l47 -6l-4 -109q-164 18 -242 19q-182 0 -249.5 -87t-67.5 -311q0 -248 62 -342t255 -94l244 19l6 -109q-184 -25 -273 -24h-4v-86q119 0 171.5 -32t52.5 -122q0 -172 -183 -172l-172 12l4 82q84 -6 146 -6 q92 0 92 84q0 76 -92 76h-96v168q-195 16 -266.5 139t-71.5 407z" />
<glyph unicode="&#xe8;" horiz-adv-x="1032" d="M109 508q0 535 421 534q203 0 303.5 -115.5t100.5 -367.5l-4 -98h-697q0 -188 64.5 -278.5t220.5 -90.5q66 0 160 5t155 9l60 5l4 -103q-231 -29 -391 -28q-221 2 -309 131t-88 397zM233 563h578q0 201 -66.5 286t-214.5 85q-297 0 -297 -371zM242 1405l45 108l426 -194 l-41 -96z" />
<glyph unicode="&#xe9;" horiz-adv-x="1032" d="M109 508q0 535 421 534q203 0 303.5 -115.5t100.5 -367.5l-4 -98h-697q0 -188 64.5 -278.5t220.5 -90.5q66 0 160 5t155 9l60 5l4 -103q-231 -29 -391 -28q-221 2 -309 131t-88 397zM233 563h578q0 201 -66.5 286t-214.5 85q-297 0 -297 -371zM324 1327l426 195l47 -113 l-430 -182z" />
<glyph unicode="&#xea;" horiz-adv-x="1032" d="M109 508q0 535 421 534q203 0 303.5 -115.5t100.5 -367.5l-4 -98h-697q0 -188 64.5 -278.5t220.5 -90.5q66 0 160 5t155 9l60 5l4 -103q-231 -29 -391 -28q-221 2 -309 131t-88 397zM233 563h578q0 201 -66.5 286t-214.5 85q-297 0 -297 -371zM238 1219l254 290h98 l254 -290h-139l-162 184l-166 -184h-139z" />
<glyph unicode="&#xeb;" horiz-adv-x="1032" d="M109 508q0 535 423 534q203 0 303.5 -115.5t100.5 -367.5l-6 -98h-694q0 -188 64 -278.5t220 -90.5q66 0 160 5t155 9l60 5l4 -103q-231 -29 -391 -28q-221 2 -310 131t-89 397zM233 563h578q0 201 -65.5 286t-213.5 85q-297 0 -299 -371zM266 1290v162h119v-162h-119z M668 1290v162h120v-162h-120z" />
<glyph unicode="&#xec;" horiz-adv-x="534" d="M27 1413l45 109l426 -195l-41 -96zM207 0v1024h123v-1024h-123z" />
<glyph unicode="&#xed;" horiz-adv-x="534" d="M88 1327l426 195l47 -113l-430 -182zM207 0v1024h123v-1024h-123z" />
<glyph unicode="&#xee;" horiz-adv-x="538" d="M-39 1219l254 290h98l254 -290h-139l-162 184l-166 -184h-139zM207 0v1024h123v-1024h-123z" />
<glyph unicode="&#xef;" horiz-adv-x="534" d="M0 1290v162h121v-162h-121zM207 0v1024h123v-1024h-123zM403 1290v162h119v-162h-119z" />
<glyph unicode="&#xf0;" d="M90 449q0 195 116 311.5t310 116.5q70 0 159 -20.5t143 -40.5l54 -19q-12 289 -319 458l-231 -161l-58 80l189 131q-115 49 -248 84l31 104q199 -49 325 -111l205 144l57 -80l-166 -117q344 -207 344 -606q0 -403 -106.5 -572t-353.5 -169q-213 0 -332 120.5t-119 346.5z M219 449q0 -168 82 -260.5t240 -92.5q180 0 254.5 129t76.5 459q-203 80 -350 80q-139 0 -221 -88t-82 -227z" />
<glyph unicode="&#xf1;" horiz-adv-x="1173" d="M195 0v1024h122v-74q176 92 332 92q205 0 273.5 -108.5t68.5 -401.5v-532h-123v530q0 233 -44 316.5t-189 83.5q-68 0 -147.5 -21.5t-125.5 -43.5l-45 -21v-844h-122zM283 1378q102 104 180 105q49 0 160.5 -51.5t140.5 -51.5q18 0 52 20.5t60 41.5l25 20l29 -96 q-92 -98 -166 -98q-47 0 -159.5 52t-143.5 52q-20 0 -57 -22.5t-64 -44.5l-27 -23z" />
<glyph unicode="&#xf2;" horiz-adv-x="1079" d="M111 528q0 274 98 394t334 120q223 0 324.5 -123.5t101.5 -392.5q0 -291 -90.5 -418.5t-335.5 -127.5q-250 0 -341 123.5t-91 424.5zM236 528q0 -248 59.5 -343t247.5 -95q186 0 242.5 98.5t56.5 337.5q0 217 -71 311.5t-228 94.5q-176 0 -241.5 -87t-65.5 -317z M297 1413l45 109l426 -195l-41 -96z" />
<glyph unicode="&#xf3;" horiz-adv-x="1079" d="M111 528q0 274 98 394t334 120q223 0 324.5 -123.5t101.5 -392.5q0 -291 -90.5 -418.5t-335.5 -127.5q-250 0 -341 123.5t-91 424.5zM236 528q0 -248 59.5 -343t247.5 -95q186 0 242.5 98.5t56.5 337.5q0 217 -71 311.5t-228 94.5q-176 0 -241.5 -87t-65.5 -317z M324 1327l426 195l47 -113l-430 -182z" />
<glyph unicode="&#xf4;" horiz-adv-x="1079" d="M111 528q0 274 98 394t334 120q223 0 324.5 -123.5t101.5 -392.5q0 -291 -90.5 -418.5t-335.5 -127.5q-250 0 -341 123.5t-91 424.5zM233 1219l254 290h99l254 -290h-140l-161 184l-166 -184h-140zM236 528q0 -248 59.5 -343t247.5 -95q186 0 242.5 98.5t56.5 337.5 q0 217 -71 311.5t-228 94.5q-176 0 -241.5 -87t-65.5 -317z" />
<glyph unicode="&#xf5;" horiz-adv-x="1079" d="M111 528q0 274 98 394t334 120q223 0 324.5 -123.5t101.5 -392.5q0 -291 -90.5 -418.5t-335.5 -127.5q-250 0 -341 123.5t-91 424.5zM215 1378q102 104 180 105q49 0 161 -51.5t140 -51.5q18 0 52 20.5t60 41.5l26 20l28 -96q-92 -98 -168 -98q-47 0 -158.5 52t-142.5 52 q-20 0 -58 -22.5t-65 -44.5l-26 -23zM236 528q0 -248 59.5 -343t247.5 -95q186 0 242.5 98.5t56.5 337.5q0 217 -71 311.5t-228 94.5q-176 0 -241.5 -87t-65.5 -317z" />
<glyph unicode="&#xf6;" horiz-adv-x="1079" d="M111 528q0 274 98 394t334 120q223 0 324.5 -123.5t101.5 -392.5q0 -291 -90.5 -418.5t-335.5 -127.5q-250 0 -341 123.5t-91 424.5zM236 528q0 -248 59.5 -343t247.5 -95q186 0 242.5 98.5t56.5 337.5q0 217 -71 311.5t-228 94.5q-176 0 -241.5 -87t-65.5 -317z M270 1290v162h121v-162h-121zM674 1290v162h119v-162h-119z" />
<glyph unicode="&#xf7;" d="M154 719v123h583v-123h-583zM283 858v186h321v-186h-321zM381 238v190h129v-190h-129z" />
<glyph unicode="&#xf8;" horiz-adv-x="1079" d="M111 528q0 274 98 394t334 120q80 0 157 -20l88 217l89 -31l-93 -221q184 -106 185 -461q0 -291 -90.5 -418.5t-335.5 -127.5q-88 0 -164 16l-92 -227l-88 30l94 228q-100 53 -141 172.5t-41 328.5zM236 528q0 -166 21.5 -257t84.5 -134l315 778q-53 17 -114 17 q-176 0 -241.5 -87t-65.5 -317zM420 102q52 -12 123 -12q186 0 242.5 98.5t56.5 337.5q0 262 -107 348z" />
<glyph unicode="&#xf9;" horiz-adv-x="1142" d="M174 489v535h121v-530q0 -240 44 -322t191 -82q68 0 144 21.5t117 43.5l40 21v848h121v-1024h-121v72q-160 -92 -315 -92q-209 0 -275.5 106.5t-66.5 402.5zM270 1409l49 111l426 -195l-47 -102z" />
<glyph unicode="&#xfa;" horiz-adv-x="1142" d="M174 489v535h121v-530q0 -240 44 -322t191 -82q68 0 144 21.5t117 43.5l40 21v848h121v-1024h-121v72q-160 -92 -315 -92q-209 0 -275.5 106.5t-66.5 402.5zM350 1327l426 195l47 -113l-430 -182z" />
<glyph unicode="&#xfb;" horiz-adv-x="1142" d="M174 489v535h121v-530q0 -240 44 -322t191 -82q68 0 144 21.5t117 43.5l40 21v848h121v-1024h-121v72q-160 -92 -315 -92q-209 0 -275.5 106.5t-66.5 402.5zM248 1219l254 290h98l254 -290h-139l-162 184l-166 -184h-139z" />
<glyph unicode="&#xfc;" horiz-adv-x="1142" d="M174 489v535h121v-530q0 -240 44 -322t191 -82q68 0 144 21.5t117 43.5l40 21v848h121v-1024h-121v72q-160 -92 -315 -92q-209 0 -275.5 106.5t-66.5 402.5zM322 1290v162h118v-162h-118zM723 1290v162h119v-162h-119z" />
<glyph unicode="&#xfd;" horiz-adv-x="983" d="M45 1024h125l272 -907h74l275 907h124l-442 -1485h-123l135 461h-139zM301 1327l426 195l47 -113l-430 -182z" />
<glyph unicode="&#xfe;" horiz-adv-x="1101" d="M254 -461v1940h123v-508q159 71 319 71q205 0 285 -116.5t80 -395.5q0 -305 -101.5 -427.5t-377.5 -122.5q-61 0 -205 10v-451h-123zM377 102q144 -12 205 -12q215 0 283.5 98.5t68.5 339.5q0 219 -52.5 310.5t-195.5 91.5q-68 0 -145.5 -16.5t-120.5 -32.5l-43 -17v-762 z" />
<glyph unicode="&#xff;" horiz-adv-x="985" d="M57 1024h125l273 -907h73l275 907h125l-443 -1485h-123l136 461h-140zM225 1290v162h121v-162h-121zM629 1290v162h119v-162h-119z" />
<glyph unicode="&#x152;" horiz-adv-x="1933" d="M123 707q0 385 118.5 563t426.5 178q174 0 301 -21h837v-122h-712v-512h589v-123h-589v-547h712v-125h-835q-188 -18 -303 -18q-315 0 -430 173t-115 554zM254 709q0 -164 16.5 -269.5t62.5 -185.5t130 -116t217 -36q98 0 289 17v1186q-262 23 -291 22 q-248 0 -336 -144.5t-88 -473.5z" />
<glyph unicode="&#x153;" horiz-adv-x="1794" d="M121 528q0 274 99 394t335 120q281 0 365 -211q94 211 358 211q203 0 303 -115.5t100 -367.5l-6 -98h-694q0 -188 64.5 -278.5t220.5 -90.5q66 0 160 5t154 9l60 5l5 -103q-231 -29 -392 -28q-252 0 -338 188q-41 -98 -127 -143t-233 -45q-250 0 -342 123.5t-92 424.5z M248 528q0 -248 59.5 -343t247.5 -95q184 0 241.5 98.5t57.5 337.5q0 217 -70.5 311.5t-228.5 94.5q-176 0 -241.5 -87t-65.5 -317zM979 563h577q0 201 -65.5 286t-212.5 85q-299 0 -299 -371z" />
<glyph unicode="&#x178;" horiz-adv-x="1122" d="M43 1427h141l379 -673l373 673h141l-450 -815v-612h-127v612zM287 1694v161h121v-161h-121zM702 1694v161h119v-161h-119z" />
<glyph unicode="&#x2c6;" horiz-adv-x="466" d="M-45 1219l254 290h98l254 -290h-139l-162 184l-166 -184h-139z" />
<glyph unicode="&#x2dc;" horiz-adv-x="466" d="M-72 1378q102 104 181 105q49 0 160.5 -51.5t140.5 -51.5q18 0 52 20.5t59 41.5l26 20l28 -96q-92 -98 -165 -98q-47 0 -160 52t-144 52q-20 0 -57 -22.5t-63 -44.5l-27 -23z" />
<glyph unicode="&#x2000;" horiz-adv-x="965" />
<glyph unicode="&#x2001;" horiz-adv-x="1931" />
<glyph unicode="&#x2002;" horiz-adv-x="965" />
<glyph unicode="&#x2003;" horiz-adv-x="1931" />
<glyph unicode="&#x2004;" horiz-adv-x="643" />
<glyph unicode="&#x2005;" horiz-adv-x="482" />
<glyph unicode="&#x2006;" horiz-adv-x="321" />
<glyph unicode="&#x2007;" horiz-adv-x="321" />
<glyph unicode="&#x2008;" horiz-adv-x="241" />
<glyph unicode="&#x2009;" horiz-adv-x="386" />
<glyph unicode="&#x200a;" horiz-adv-x="107" />
<glyph unicode="&#x2010;" horiz-adv-x="901" d="M127 516v119h645v-119h-645z" />
<glyph unicode="&#x2011;" horiz-adv-x="901" d="M127 516v119h645v-119h-645z" />
<glyph unicode="&#x2012;" horiz-adv-x="901" d="M127 516v119h645v-119h-645z" />
<glyph unicode="&#x2013;" horiz-adv-x="1024" d="M0 496v114h1024v-114h-1024z" />
<glyph unicode="&#x2014;" horiz-adv-x="2048" d="M0 496v114h2048v-114h-2048z" />
<glyph unicode="&#x2018;" horiz-adv-x="348" d="M45 1057l105 432h110l-86 -432h-129z" />
<glyph unicode="&#x2019;" horiz-adv-x="348" d="M86 1079l86 432h129l-104 -432h-111z" />
<glyph unicode="&#x201a;" horiz-adv-x="374" d="M68 -197l104 433h111l-86 -433h-129z" />
<glyph unicode="&#x201c;" horiz-adv-x="665" d="M53 1057l103 432h112l-86 -432h-129zM346 1057l103 432h112l-86 -432h-129z" />
<glyph unicode="&#x201d;" horiz-adv-x="718" d="M129 1053l86 432h129l-102 -432h-113zM440 1053l86 432h129l-102 -432h-113z" />
<glyph unicode="&#x201e;" horiz-adv-x="698" d="M88 -197l86 433h129l-102 -433h-113zM399 -197l86 433h129l-102 -433h-113z" />
<glyph unicode="&#x2022;" d="M289 219v590h508v-590h-508z" />
<glyph unicode="&#x2026;" horiz-adv-x="1523" d="M193 0v207h135v-207h-135zM713 0v207h135v-207h-135zM1233 0v207h135v-207h-135z" />
<glyph unicode="&#x202f;" horiz-adv-x="386" />
<glyph unicode="&#x2039;" horiz-adv-x="589" d="M82 459v104l371 283v-129l-265 -203l265 -223v-131z" />
<glyph unicode="&#x203a;" horiz-adv-x="589" d="M137 164v133l264 223l-264 201v129l371 -283v-104z" />
<glyph unicode="&#x205f;" horiz-adv-x="482" />
<glyph unicode="&#x20ac;" horiz-adv-x="1118" d="M43 473v107h121v206h-121v107h129q23 254 133.5 372.5t368.5 118.5q84 0 174 -10t138 -19l48 -9l-6 -117q-193 33 -344 33q-199 0 -280.5 -88.5t-100.5 -282.5h586v-105h-594v-206l594 -2v-105h-586q18 -197 100 -284t283 -87q59 0 145.5 8.5t141.5 16.5l55 8l6 -117 q-199 -39 -360 -38q-260 0 -370.5 117.5t-131.5 375.5h-129z" />
<glyph unicode="&#x2122;" d="M14 1196v88h410v-88h-150v-516h-94v516h-166zM489 678v606h132l149 -453l156 453h129v-606h-90v485l-154 -458h-82l-147 458v-485h-93z" />
<glyph unicode="&#xe000;" horiz-adv-x="1025" d="M0 1025h1025v-1025h-1025v1025z" />
<glyph unicode="&#xfb01;" horiz-adv-x="1145" d="M851 0v1024h123v-1024h-123zM851 1280v154h123v-154h-123zM61 911v113h136v104q0 217 59 294t209 77l201 -12l-2 -103q-121 4 -181 5q-94 0 -130 -53.5t-36 -209.5v-102h312v-113h-312v-911h-120v911h-136z" />
<glyph unicode="&#xfb02;" horiz-adv-x="1162" d="M859 0v1479h123v-1479h-123zM61 911v113h136v104q0 217 59 294t209 77l201 -12l-2 -103q-121 4 -181 5q-94 0 -130 -53.5t-36 -209.5v-102h312v-113h-312v-911h-120v911h-136z" />
<glyph unicode="&#xfb03;" horiz-adv-x="1824" d="M1530 0v1024h123v-1024h-123zM1530 1280v154h123v-154h-123zM740 911v113h136v104q0 217 59 294t209 77l201 -12l-2 -103q-121 4 -181 5q-94 0 -130 -53.5t-36 -209.5v-102h312v-113h-312v-911h-120v911h-136zM61 911v113h136v104q0 217 59 294t209 77l201 -12l-2 -103 q-121 4 -181 5q-94 0 -130 -53.5t-36 -209.5v-102h312v-113h-312v-911h-120v911h-136z" />
<glyph unicode="&#xfb04;" horiz-adv-x="1841" d="M1538 0v1479h123v-1479h-123zM740 911v113h136v104q0 217 59 294t209 77l201 -12l-2 -103q-121 4 -181 5q-94 0 -130 -53.5t-36 -209.5v-102h312v-113h-312v-911h-120v911h-136zM61 911v113h136v104q0 217 59 294t209 77l201 -12l-2 -103q-121 4 -181 5q-94 0 -130 -53.5 t-36 -209.5v-102h312v-113h-312v-911h-120v911h-136z" />
<glyph horiz-adv-x="481" />
</font>
</defs>
</svg>
